BitTorrentTracker PerecTracker.org
BitTorrentTracker PerecTracker.org
    
Регистрация  ·  Вход
 
 · 
Забыли пароль?

  • Дом 2: Проклятая обитель / House II: The Second Story (Этан Уайли / Ethan Wiley) [1987, США, ужасы, фэнтези, комедия, HDTVRip 720p] 2x MVO + DVO + 2x AVO (Гаврилов, Визгунов) + Original Eng + Sub Rus

    Ответить на тему
     
    Автор Сообщение

    Flirldrerve

    Создавать темы 09-Фев-2016 00:05

           

    [Цитировать]

    Дом 2: Проклятая обитель / House II: The Second Story
    Год выпуска: 1987
    Страна: США
    Жанр: ужасы, фэнтези, комедия
    Продолжительность: 01:24:33
    Перевод1: Профессиональный (многоголосый закадровый)(CP-Digital)
    Перевод2: Профессиональный (многолосый закадровый)(Рен ТВ)
    Перевод3: Профессиональный (двухголосый закадровый)
    Перевод4: Авторский (одноголосый закадровый)(А.Гаврилов)
    Перевод5: Авторский (одноголосый закадровый)(С.Визгунов)
    Субтитры: русские
    Оригинальная аудиодорожка: английский
    Режиссер: Этан Уайли / Ethan Wiley
    В ролях: Ари Гросс, Джонатан Старк, Ройал Дэно, Билл Мехер, Джон Ратценбергер, Лар Парк-Линкольн, Эми Ясбек, Грегори Уэлкотт, Дуайр Браун, Ленора Мэй...
    Описание: Парень по имени Джесси заимел в качестве наследства старый особнячок, время расцвета коего давно уже миновало, но жить в нём всё ещё можно. И постепенно водоворот сколь диких, столь и весёлых событий происходящих в самом доме и вокруг него, захлёстывает парня а заодно и его закадычного дружка Чарли. Представляете, раскапываете вы могилу своего прапрадедушки, а он оказывается жив, курилка! И жив он благодаря хрустальному черепу, на который, как окажется, всякая нечисть так и мечтает наложить лапу...

    Качество: HDTVRip 720p
    Формат: MKV
    Видео кодек: H.264
    Аудио кодек: AC3
    Видео: 1280 x 712 / MPEG-4 AVC Video / 4917 kbps / 25.000 fps / High@L3.1
    Аудио1: Русский, AC3 5.1 448 Kbps 48,0 КГц(MVO)
    Аудио2: Русский, AC3 2.0 192 Kbps 48,0 КГц(REN TV)
    Аудио3: Русский, AC3 2.0 192 Kbps 48,0 КГц(DVO)
    Аудио4: Русский, AC3 2.0 224 Kbps 48,0 КГц(Gavrilov)
    Аудио5: Русский, AC3 2.0 192 Kbps 48,0 КГц(Vizgunov)
    Аудио6: English, AC3 5.1 448 Kbps 48,0 КГц(Original)
    Аудио7: English, AC3 2.0 192 Kbps 48,0 КГц(Commentary)
    Субтитры: Soft Sub (SRT)

    MediaInfo

    Общее
    Уникальный идентификатор : 217446312190607511772878436050976894429 (0xA396A2EABF179C5589F922CA424FEDDD)
    Полное имя : D:\House.II.The.Second.Story.1987.HDTVRip.720p.5xRus.Eng.mkv
    Формат : Matroska
    Версия формата : Version 4 / Version 2
    Размер файла : 4,10 Гбайт
    Продолжительность : 1 ч. 24 м.
    Общий поток : 6944 Кбит/сек
    Название фильма : House II
    Дата кодирования : UTC 2016-02-06 11:26:03
    Программа кодирования : mkvmerge v7.3.0 ('Nouages') 32bit built on Oct 22 2014 18:44:01
    Библиотека кодирования : libebml v1.3.0 + libmatroska v1.4.1
    _STATISTICS_WRITING_APP : mkvmerge v7.3.0 ('Nouages') 32bit built on Oct 22 2014 18:44:01
    _STATISTICS_WRITING_DATE_UTC : 2016-02-06 11:26:03
    _STATISTICS_TAGS : BPS DURATION NUMBER_OF_FRAMES NUMBER_OF_BYTES
    DURATION : 01:24:28.992000000
    NUMBER_OF_FRAMES : 158406
    NUMBER_OF_BYTES : 121655808
    Видео
    Идентификатор : 1
    Формат : AVC
    Формат/Информация : Advanced Video Codec
    Профиль формата : High@L3.1
    Параметр CABAC формата : Да
    Параметр ReFrames формата : 4 кадра
    Идентификатор кодека : V_MPEG4/ISO/AVC
    Продолжительность : 1 ч. 24 м.
    Битрейт : 4917 Кбит/сек
    Ширина : 1280 пикселей
    Высота : 712 пикселей
    Соотношение сторон : 16:9
    Режим частоты кадров : Постоянный
    Частота кадров : 25,000 кадров/сек
    Частота кадров в оригинале : 23,976 кадра/сек
    Цветовое пространство : YUV
    Субдискретизация насыщенности : 4:2:0
    Битовая глубина : 8 бит
    Тип развёртки : Прогрессивная
    Бит/(Пиксели*Кадры) : 0.216
    Размер потока : 2,90 Гбайт (71%)
    Заголовок : House.II.The.Second.Story.1987.AC3.720p.HDTV.x264
    Библиотека кодирования : x264 core 142 r2431 ac76440
    Настройки программы : cabac=1 / ref=3 / deblock=1:0:0 / analyse=0x3:0x113 / me=hex / subme=7 / psy=1 /
    psy_rd=1.00:0.00 / mixed_ref=1 / me_range=16 / chroma_me=1 / trellis=1 / 8x8dct=1 / cqm=0 / deadzone=21,11 / fast_pskip=1 /
    chroma_qp_offset=-2 / threads=6 / lookahead_threads=1 / sliced_threads=0 / nr=0 / decimate=1 / interlaced=0 / bluray_compat=0 /
    constrained_intra=0 / bframes=3 / b_pyramid=2 / b_adapt=1 / b_bias=0 / direct=1 / weightb=1 / open_gop=0 / weightp=2 / keyint=240 /
    keyint_min=23 / scenecut=40 / intra_refresh=0 / rc_lookahead=40 / rc=crf / mbtree=1 / crf=18.0 / qcomp=0.60 / qpmin=0 / qpmax=69 /
    qpstep=4 / ip_ratio=1.40 / aq=1:1.00
    Default : Нет
    Forced : Нет
    Аудио #1
    Идентификатор : 2
    Формат : AC-3
    Формат/Информация : Audio Coding 3
    Расширение режима : CM (complete main)
    Параметр Endianness формата : Big
    Идентификатор кодека : A_AC3
    Продолжительность : 1 ч. 24 м.
    Вид битрейта : Постоянный
    Битрейт : 448 Кбит/сек
    Каналы : 6 каналов
    Расположение каналов : Front: L C R, Side: L R, LFE
    Частота : 48,0 КГц
    Метод сжатия : С потерями
    Размер потока : 271 Мбайт (6%)
    Заголовок : MVO AC3 5.1 448 kbps
    Язык : Russian
    Default : Нет
    Forced : Нет
    Аудио #2
    Идентификатор : 3
    Формат : AC-3
    Формат/Информация : Audio Coding 3
    Расширение режима : CM (complete main)
    Параметр Endianness формата : Big
    Идентификатор кодека : A_AC3
    Продолжительность : 1 ч. 24 м.
    Вид битрейта : Постоянный
    Битрейт : 192 Кбит/сек
    Каналы : 2 канала
    Расположение каналов : Front: L R
    Частота : 48,0 КГц
    Метод сжатия : С потерями
    Размер потока : 116 Мбайт (3%)
    Заголовок : REN TV AC3 2.0 192 kbps
    Язык : Russian
    Default : Нет
    Forced : Нет
    Аудио #3
    Идентификатор : 4
    Формат : AC-3
    Формат/Информация : Audio Coding 3
    Расширение режима : CM (complete main)
    Параметр Endianness формата : Big
    Идентификатор кодека : A_AC3
    Продолжительность : 1 ч. 24 м.
    Вид битрейта : Постоянный
    Битрейт : 192 Кбит/сек
    Каналы : 2 канала
    Расположение каналов : Front: L R
    Частота : 48,0 КГц
    Метод сжатия : С потерями
    Размер потока : 116 Мбайт (3%)
    Заголовок : DVO AC3 2.0 192 kbps
    Язык : Russian
    Default : Нет
    Forced : Нет
    Аудио #4
    Идентификатор : 5
    Формат : AC-3
    Формат/Информация : Audio Coding 3
    Расширение режима : CM (complete main)
    Параметр Endianness формата : Big
    Идентификатор кодека : A_AC3
    Продолжительность : 1 ч. 24 м.
    Вид битрейта : Постоянный
    Битрейт : 224 Кбит/сек
    Каналы : 2 канала
    Расположение каналов : Front: L R
    Частота : 48,0 КГц
    Метод сжатия : С потерями
    Размер потока : 135 Мбайт (3%)
    Заголовок : Gavrilov AC3 2.0 224 kbps
    Язык : Russian
    Default : Нет
    Forced : Нет
    Аудио #5
    Идентификатор : 6
    Формат : AC-3
    Формат/Информация : Audio Coding 3
    Расширение режима : CM (complete main)
    Параметр Endianness формата : Big
    Идентификатор кодека : A_AC3
    Продолжительность : 1 ч. 24 м.
    Вид битрейта : Постоянный
    Битрейт : 192 Кбит/сек
    Каналы : 2 канала
    Расположение каналов : Front: L R
    Частота : 48,0 КГц
    Метод сжатия : С потерями
    Размер потока : 116 Мбайт (3%)
    Заголовок : Vizgunov AC3 2.0 192 kbps
    Язык : Russian
    Default : Нет
    Forced : Нет
    Аудио #6
    Идентификатор : 7
    Формат : AC-3
    Формат/Информация : Audio Coding 3
    Расширение режима : CM (complete main)
    Параметр Endianness формата : Big
    Идентификатор кодека : A_AC3
    Продолжительность : 1 ч. 24 м.
    Вид битрейта : Постоянный
    Битрейт : 448 Кбит/сек
    Каналы : 6 каналов
    Расположение каналов : Front: L C R, Side: L R, LFE
    Частота : 48,0 КГц
    Метод сжатия : С потерями
    Размер потока : 271 Мбайт (6%)
    Заголовок : Original AC3 5.1 448 kbps
    Язык : English
    Default : Нет
    Forced : Нет
    Аудио #7
    Идентификатор : 8
    Формат : AC-3
    Формат/Информация : Audio Coding 3
    Расширение режима : CM (complete main)
    Параметр Endianness формата : Big
    Идентификатор кодека : A_AC3
    Продолжительность : 1 ч. 24 м.
    Вид битрейта : Постоянный
    Битрейт : 192 Кбит/сек
    Каналы : 2 канала
    Расположение каналов : Front: L R
    Частота : 48,0 КГц
    Метод сжатия : С потерями
    Размер потока : 116 Мбайт (3%)
    Заголовок : Commentary AC3 2.0 192 kbps
    Язык : English
    Default : Нет
    Forced : Нет
    Текст
    Идентификатор : 9
    Формат : UTF-8
    Идентификатор кодека : S_TEXT/UTF8
    Идентификатор кодека/Информация : UTF-8 Plain Text
    Язык : Russian
    Default : Нет
    Forced : Нет

    Скриншоты

    Скачать .torrent

    Скачать торрент-файл бесплатно и на максимальной скорости!

    Как скачивать? · Что такое торрент? · Рейтинг и ограничения

    !ВНИМАНИЕ!
    Сайт не распространяет и не хранит электронные версии произведений, а занимается лишь лишь предоставлением доступа к создаваемому пользователями каталогу ссылок на торрент-файлы, которые содержат только списки хеш-сумм, убедительная просьба с жалобами обращаться напрямую к пользователю. Файлы для обмена на трекере предоставлены пользователями сайта, и администрация не несёт ответственности за их содержание. Просьба не заливать файлы, защищенные авторскими правами, а также файлы нелегального содержания!


    _________________
    [Профиль] [ЛС]
    Показать сообщения:    
    Ответить на тему

    Текущее время: Сегодня, в 11:57

    Часовой пояс: GMT + 2



    Вы не можете начинать темы
    Вы не можете отвечать на сообщения
    Вы не можете редактировать свои сообщения
    Вы не можете удалять свои сообщения
    Вы не можете голосовать в опросах
    Вы не можете прикреплять файлы к сообщениям
    Вы не можете скачивать файлы