BitTorrentTracker PerecTracker.org
BitTorrentTracker PerecTracker.org
    
Регистрация  ·  Вход
 
 · 
Забыли пароль?

  • СуперБоб / SuperBob (Джон Древер / Jon Drever) [2015, Великобритания, боевик, мелодрама, комедия, WEB-DL 720p] DVO (Ozz tv) + Sub Rus + Original Eng

    Ответить на тему
     
    Автор Сообщение

    Flirldrerve

    Создавать темы 09-Фев-2016 00:05

           

    [Цитировать]

    СуперБоб / SuperBob-Страна: Великобритания
    Студия: Fyzz Facility Film Five, The, Grain Media, Jonescompany Productions, thefyzz
    Жанр: боевик, мелодрама, комедия
    Год выпуска: 2015
    Продолжительность: 01:22:20
    Перевод: Профессиональный (двухголосый закадровый) Ozz tv
    Cубтитры: русские
    Оригинальная аудиодорожка: английская
    Режиссер: Джон Древер / Jon Drever
    В ролях: Бретт Голдстин, Кэтрин Тейт, Наталия Тена, Лора Хэддок, Рут Шин, Камилла Бипут, Дэвид Бротон, Пэт Карни, Кристиан Райан Контрерарс, Эмили Коркоран
    Описание: Один день из жизни единственного в Лондоне (и во всём мире) супергероя — застенчивого бывшего почтальона, а ныне госслужащего Боба Кеннера. Его первое за 6 лет свидание рискует быть сорванным, потому что личная жизнь никак не вяжется со спасением мира.
    Озвучка релиз-группы:
    Перевод: Максим Чайкин
    Роли озвучивали: Ирина Воронова и Алексей Серёгин

    Тип релиза: WEB-DL 720p [RARBG]
    Контейнер: MKV
    Видео: 1280x542 (2,35:1), 24,000 fps, Advanced Video Codec ~3902 kbps avg, 0.234 bit/pixel
    Аудио 1: 48 kHz, AC3 Dolby Digital, 3/2 (L,C,R,l,r) + LFE ch, ~384 kbps (русская)
    Аудио 2: 48 kHz, AC3 Dolby Digital, 3/2 (L,C,R,l,r) + LFE ch, ~384 kbps (английская)
    Формат субтитров: softsub (SRT)
    Чаптеры: есть

    MediaInfo

    ОбщееУникальный идентификатор : 207837491951719836138138790977152488812 (0x9C5C0B80A36C92CC99A1943F909C156C)Полное имя : \SuperBob.2015.WEB-DL.720p.AC3.H.264.mkvФормат : MatroskaВерсия формата : Version 4 / Version 2Размер файла : 2,74 ГбайтПродолжительность : 1 ч. 22 м.Общий поток : 4765 Кбит/секДата кодирования : UTC 2016-01-25 19:09:09Программа кодирования : mkvmerge v7.3.0 ('Nouages') 64bit built on Oct 22 2014 18:53:34Библиотека кодирования : libebml v1.3.0 + libmatroska v1.4.1
    ВидеоИдентификатор : 1Формат : AVCФормат/Информация : Advanced Video CodecПрофиль формата : Main@L3.1Параметр CABAC формата : НетПараметр ReFrames формата : 2 кадраИдентификатор кодека : V_MPEG4/ISO/AVCПродолжительность : 1 ч. 22 м.Битрейт : 3902 Кбит/секШирина : 1280 пикселейВысота : 542 пикселяСоотношение сторон : 2,35:1Режим частоты кадров : ПостоянныйЧастота кадров : 24,000 кадра/секЦветовое пространство : YUVСубдискретизация насыщенности : 4:2:0Битовая глубина : 8 битТип развёртки : ПрогрессивнаяБит/(Пиксели*Кадры) : 0.234Размер потока : 2,24 Гбайт (82%)Заголовок : SuperBob.2015.720p.WEB-DL.DD5.1.H264-RARBGЯзык : EnglishDefault : ДаForced : НетОсновные цвета : BT.709Характеристики трансфера : BT.709Коэффициенты матрицы : BT.709
    Аудио #1Идентификатор : 2Формат : AC-3Формат/Информация : Audio Coding 3Расширение режима : CM (complete main)Параметр Endianness формата : BigИдентификатор кодека : A_AC3Продолжительность : 1 ч. 22 м.Вид битрейта : ПостоянныйБитрейт : 384 Кбит/секКаналы : 6 каналовРасположение каналов : Front: L C R, Side: L R, LFEЧастота : 48,0 КГцБитовая глубина : 16 битМетод сжатия : С потерямиРазмер потока : 226 Мбайт (8%)Заголовок : AC3 5.1 384 kbps DVO (Ozz tv)Язык : RussianDefault : ДаForced : Нет
    Аудио #2Идентификатор : 3Формат : AC-3Формат/Информация : Audio Coding 3Расширение режима : CM (complete main)Параметр Endianness формата : BigИдентификатор кодека : A_AC3Продолжительность : 1 ч. 22 м.Вид битрейта : ПостоянныйБитрейт : 384 Кбит/секКаналы : 6 каналовРасположение каналов : Front: L C R, Side: L R, LFEЧастота : 48,0 КГцБитовая глубина : 16 битМетод сжатия : С потерямиРазмер потока : 226 Мбайт (8%)Заголовок : AC3 5.1 384 kbps OriginalЯзык : EnglishDefault : НетForced : Нет
    ТекстИдентификатор : 4Формат : UTF-8Идентификатор кодека : S_TEXT/UTF8Идентификатор кодека/Информация : UTF-8 Plain TextЗаголовок : Sub-fullЯзык : RussianDefault : НетForced : Нет
    Меню00:00:00.000 : Chapter 100:10:03.000 : Chapter 200:16:48.000 : Chapter 300:27:50.000 : Chapter 400:44:32.000 : Chapter 500:57:43.000 : Chapter 601:06:17.000 : Chapter 701:18:59.000 : Chapter 8

    Скриншоты


    Скачать .torrent

    Скачать торрент-файл бесплатно и на максимальной скорости!

    Как скачивать? · Что такое торрент? · Рейтинг и ограничения

    !ВНИМАНИЕ!
    Сайт не распространяет и не хранит электронные версии произведений, а занимается лишь лишь предоставлением доступа к создаваемому пользователями каталогу ссылок на торрент-файлы, которые содержат только списки хеш-сумм, убедительная просьба с жалобами обращаться напрямую к пользователю. Файлы для обмена на трекере предоставлены пользователями сайта, и администрация не несёт ответственности за их содержание. Просьба не заливать файлы, защищенные авторскими правами, а также файлы нелегального содержания!


    _________________
    [Профиль] [ЛС]
    Показать сообщения:    
    Ответить на тему

    Текущее время: Сегодня, в 01:55

    Часовой пояс: GMT + 2



    Вы не можете начинать темы
    Вы не можете отвечать на сообщения
    Вы не можете редактировать свои сообщения
    Вы не можете удалять свои сообщения
    Вы не можете голосовать в опросах
    Вы не можете прикреплять файлы к сообщениям
    Вы не можете скачивать файлы