BitTorrentTracker PerecTracker.org
BitTorrentTracker PerecTracker.org
    
Регистрация  ·  Вход
 
 · 
Забыли пароль?

  • Строго на запад / Slow West (Джон Маклин / John Maclean) [2015, Великобритания, Новая Зеландия, боевик, триллер, вестерн, BDRip 1080p] Dub (iTunes) + Sub Rus, Eng + Original Eng

    Ответить на тему
     
    Автор Сообщение

    Flirldrerve

    Создавать темы 09-Фев-2016 00:05

           

    [Цитировать]

    Строго на запад / Slow West
    Страна: Великобритания, Новая Зеландия
    Студия: See-Saw Films, DMC Film, Film4
    Жанр: боевик, триллер, вестерн
    Год выпуска: 2015
    Продолжительность: 01:24:24
    Перевод: Профессиональный (дублированный) iTunes
    Cубтитры: Rus, Eng
    Оригинальная аудиодорожка: английский
    Режиссер: Джон Маклин / John Maclean
    В ролях: Майкл Фассбендер, Бен Мендельсон, Коди Смит-МакФи, Рори МакКанн, Брук Уильямс, Карен Писториус, Алекс МакКуин, Энди МакФи, Джеффри Томас, Калани Кейпо
    Описание: Авантюрист средних лет ведет молодого выходца из Шотландии на Запад, куда тот отправился на поиски возлюбленной, по следу которой идут еще и охотники за головами. Истоия c непредсказуемым завершением, описать которое в одном предложении было бы кощунством.

    Тип релиза: BDRip 1080p
    Контейнер: MKV
    Видео: MPEG-4 AVC, 11.9 Mбит/с, 1788x1080, 23,976 fps
    Аудио: Rus, AC3, 384 kb/s (6 ch), 48 kHz
    Аудио 2: Eng, DTS, 1510 kb/s (6 ch), 48 kHz
    Формат субтитров: softsub (SRT)

    MediaInfo

    x264 [info]: frame I:1017 Avg QP:13.12 size:305418
    x264 [info]: frame P:26250 Avg QP:14.01 size:118198
    x264 [info]: frame B:93594 Avg QP:16.48 size: 45668
    x264 [info]: consecutive B-frames: 1.3% 1.3% 15.5% 20.6% 14.0% 38.0% 5.2% 1.6% 2.7%
    Format : Matroska
    Format version : Version 4 / Version 2
    File size : 8.27 GiB
    Duration : 1h 24mn
    Overall bit rate : 14.1 Mbps
    Movie name : Строго на запад. (Tonik)
    Encoded date : UTC 2016-02-07 18:42:51
    Writing application : mkvmerge v7.1.0 ('Good Love') 64bit built on Jul 27 2014 13:06:55
    Writing library : libebml v1.3.0 + libmatroska v1.4.1
    _STATISTICS_WRITING_APP : mkvmerge v7.1.0 ('Good Love') 64bit built on Jul 27 2014 13:06:55
    _STATISTICS_WRITING_DATE_UTC : 2016-02-07 18:42:51
    _STATISTICS_TAGS : BPS DURATION NUMBER_OF_FRAMES NUMBER_OF_BYTES
    DURATION : 01:24:00.911000000
    NUMBER_OF_FRAMES : 120861
    NUMBER_OF_BYTES : 7686917631
    Video
    ID : 1
    Format : AVC
    Format/Info : Advanced Video Codec
    Format profile : High@L4.1
    Format settings, CABAC : Yes
    Format settings, ReFrames : 4 frames
    Codec ID : V_MPEG4/ISO/AVC
    Duration : 1h 24mn
    Bit rate : 11.9 Mbps
    Width : 1 788 pixels
    Height : 1 080 pixels
    Display aspect ratio : 1.656
    Frame rate mode : Constant
    Frame rate : 23.976 fps
    Color space : YUV
    Chroma subsampling : 4:2:0
    Bit depth : 8 bits
    Scan type : Progressive
    Bits/(Pixel*Frame) : 0.257
    Stream size : 7.00 GiB (85%)
    Writing library : x264 core 146 r2538 121396c
    Encoding settings : cabac=1 / ref=4 / deblock=1:-3:-3 / analyse=0x3:0x113 / me=umh / subme=10 / psy=1 / psy_rd=1.00:0.00 / mixed_ref=1 / me_range=24 / chroma_me=1 / trellis=2 / 8x8dct=1 / cqm=0 / deadzone=21,11 / fast_pskip=1 / chroma_qp_offset=-2 / threads=6 / lookahead_threads=1 / sliced_threads=0 / nr=0 / decimate=1 / interlaced=0 / bluray_compat=0 / constrained_intra=0 / bframes=8 / b_pyramid=2 / b_adapt=2 / b_bias=0 / direct=1 / weightb=1 / open_gop=0 / weightp=2 / keyint=250 / keyint_min=25 / scenecut=40 / intra_refresh=0 / rc_lookahead=60 / rc=crf / mbtree=0 / crf=16.0 / qcomp=0.60 / qpmin=0 / qpmax=69 / qpstep=4 / vbv_maxrate=62500 / vbv_bufsize=78125 / crf_max=0.0 / nal_hrd=none / filler=0 / ip_ratio=1.40 / pb_ratio=1.30 / aq=1:0.80
    Language : English
    Default : Yes
    Forced : No
    Audio #1
    ID : 2
    Format : AC-3
    Format/Info : Audio Coding 3
    Mode extension : CM (complete main)
    Format settings, Endianness : Big
    Codec ID : A_AC3
    Duration : 1h 24mn
    Bit rate mode : Constant
    Bit rate : 384 Kbps
    Channel(s) : 6 channels
    Channel positions : Front: L C R, Side: L R, LFE
    Sampling rate : 48.0 KHz
    Bit depth : 16 bits
    Compression mode : Lossy
    Stream size : 231 MiB (3%)
    Title : iTunes
    Language : Russian
    Default : Yes
    Forced : No
    Audio #2
    ID : 3
    Format : DTS
    Format/Info : Digital Theater Systems
    Mode : 16
    Format settings, Endianness : Big
    Codec ID : A_DTS
    Duration : 1h 24mn
    Bit rate mode : Constant
    Bit rate : 1 509 Kbps
    Channel(s) : 6 channels
    Channel positions : Front: L C R, Side: L R, LFE
    Sampling rate : 48.0 KHz
    Bit depth : 24 bits
    Compression mode : Lossy
    Stream size : 907 MiB (11%)
    Language : English
    Default : No
    Forced : No
    Text #1
    ID : 4
    Format : UTF-8
    Codec ID : S_TEXT/UTF8
    Codec ID/Info : UTF-8 Plain Text
    Title : Forced
    Language : Russian
    Default : Yes
    Forced : No
    Text #2
    ID : 5
    Format : UTF-8
    Codec ID : S_TEXT/UTF8
    Codec ID/Info : UTF-8 Plain Text
    Language : Russian
    Default : No
    Forced : No
    Text #3
    ID : 6
    Format : UTF-8
    Codec ID : S_TEXT/UTF8
    Codec ID/Info : UTF-8 Plain Text
    Title : Forced
    Language : English
    Default : No
    Forced : No
    Text #4
    ID : 7
    Format : UTF-8
    Codec ID : S_TEXT/UTF8
    Codec ID/Info : UTF-8 Plain Text
    Language : English
    Default : No
    Forced : No
    Menu
    00:00:00.000 : en:00:00:00.000
    00:04:55.128 : en:00:04:55.128
    00:10:24.165 : en:00:10:24.165
    00:14:35.541 : en:00:14:35.541
    00:19:08.397 : en:00:19:08.397
    00:25:29.236 : en:00:25:29.236
    00:29:17.756 : en:00:29:17.756
    00:35:17.282 : en:00:35:17.282
    00:39:36.291 : en:00:39:36.291
    00:45:26.641 : en:00:45:26.641
    00:51:45.436 : en:00:51:45.436
    00:55:14.186 : en:00:55:14.186
    01:01:43.909 : en:01:01:43.909
    01:07:38.596 : en:01:07:38.596
    01:10:55.960 : en:01:10:55.960
    01:18:29.330 : en:01:18:29.330

    Скриншоты

    Скачать .torrent

    Скачать торрент-файл бесплатно и на максимальной скорости!

    Как скачивать? · Что такое торрент? · Рейтинг и ограничения

    !ВНИМАНИЕ!
    Сайт не распространяет и не хранит электронные версии произведений, а занимается лишь лишь предоставлением доступа к создаваемому пользователями каталогу ссылок на торрент-файлы, которые содержат только списки хеш-сумм, убедительная просьба с жалобами обращаться напрямую к пользователю. Файлы для обмена на трекере предоставлены пользователями сайта, и администрация не несёт ответственности за их содержание. Просьба не заливать файлы, защищенные авторскими правами, а также файлы нелегального содержания!


    _________________
    [Профиль] [ЛС]
    Показать сообщения:    
    Ответить на тему

    Текущее время: Сегодня, в 22:16

    Часовой пояс: GMT + 2



    Вы не можете начинать темы
    Вы не можете отвечать на сообщения
    Вы не можете редактировать свои сообщения
    Вы не можете удалять свои сообщения
    Вы не можете голосовать в опросах
    Вы не можете прикреплять файлы к сообщениям
    Вы не можете скачивать файлы