Register  ·  Log in
Forgot password?

  • Хороший динозавр / The Good Dinosaur (Питер Сон / Peter Sohn) [2015 г., мультфильм, фэнтези, комедия, приключения, семейный, HDRip] Dub (Line)

    Reply to topic
    Author Message


    Post 09-Feb-2016 01:05



    Хороший динозавр / The Good Dinosaur
    Страна: США
    Жанр: мультфильм, фэнтези, комедия, приключения, семейный
    Продолжительность: 01:33:21
    Год выпуска: 2015
    Перевод: Профессиональный (дублированный) Line
    Русские субтитры: нет
    Режиссёр: Питер Сон / Peter Sohn
    Роли озвучивали: Джеффри Райт, Фрэнсис МакДорманд, Малиа Нипай-Падилья, Райан Типл, Джек МакГроу, Маркус Скрибнер, Рэймонд Очоа, Джек Брайт, Питер Сон, Стив Зан
    Описание: По сюжету динозавры не вымерли, а эволюционировали в разумных существ и живут и здравствуют на Земле. А вот люди остались на довольно примитивной стадии развития. Фильм расскажет историю дружбы динозавра и маленького мальчика.

    Качество: HDRip
    Формат: AVI
    Видео: XviD, 640x272 (2.35:1), 23.976 fps, XviD build 67 ~910 kbps avg, 0.22 bit/pixel
    Аудио: AC3, 48 kHz, AC3 Dolby Digital, 2/0 (L,R) ch, ~192 kbps

    Подробные технические данные

    Complete name : Хороший динозавр.aviFormat : AVIFormat/Info : Audio Video InterleaveFile size : 742 MiBDuration : 1h 33mnOverall bit rate : 1 112 KbpsWriting application : VirtualDubMod | || (build 2550/release)Writing library : VirtualDubMod build 2550/release
    VideoID : 0Format : MPEG-4 VisualFormat profile : Advanced Simple@L5Format settings, BVOP : 2Format settings, QPel : NoFormat settings, GMC : No warppointsFormat settings, Matrix : Default (H.263)Codec ID : XVIDCodec ID/Hint : XviDDuration : 1h 33mnBit rate : 910 KbpsWidth : 640 pixelsHeight : 272 pixelsDisplay aspect ratio : 2.35:1Frame rate : 23.976 (24000/1001) fpsColor space : YUVChroma subsampling : 4:2:0Bit depth : 8 bitsScan type : ProgressiveCompression mode : LossyBits/(Pixel*Frame) : 0.218Stream size : 608 MiB (82%)Writing library : XviD 67
    AudioID : 1Format : AC-3Format/Info : Audio Coding 3Mode extension : CM (complete main)Format settings, Endianness : BigCodec ID : 2000Duration : 1h 33mnBit rate mode : ConstantBit rate : 192 KbpsChannel(s) : 2 channelsChannel positions : Front: L RSampling rate : 48.0 KHzFrame rate : 31.250 fps (1536 spf)Compression mode : LossyStream size : 128 MiB (17%)Alignment : Split accross interleavesInterleave, duration : 42 ms (1.00 video frame)Interleave, preload duratio : 500 ms


    Download .torrent

    Download free and at maximum speed!

    How to Download? · What is a torrent? · Ratings and Limitations

    The site does not extend and does not store electronic(digital) versions of products, and only gives access to a reference catalogue created by users on torrent-files which contain only lists of the hash-sums, the earnest entreaty, with complaints(abuse) to access directly to the user. Files for an exchange on tracker are given by users of a site, and the administration does not bear the responsibility for their maintenance. The request to not fill in the files protected by copyrights, and also files of the illegal maintenance!

    [Profile] [PM]
    Display posts from previous:    
    Reply to topic

    The time now is: Today 21:09

    All times are GMT + 3 Hours

    You cannot post new topics in this forum
    You cannot reply to topics in this forum
    You cannot edit your posts in this forum
    You cannot delete your posts in this forum
    You cannot vote in polls in this forum
    You cannot attach files in this forum
    You cannot download files in this forum