Register  ·  Log in
Forgot password?

  • Уже скучаю по тебе / Miss You Already (Кэтрин Хардвик / Catherine Hardwicke) [2015, Великобритания, Драма, Мелодрама, Комедия, HDRip] DVO (Parovoz Production)

    Reply to topic
    Author Message


    Post 09-Feb-2016 01:05



    -Уже скучаю по тебе / Miss You Already
    «When life falls apart, friends keep it together»--Страна: Великобритания
    Жанр: Драма, Мелодрама, Комедия
    Год выпуска: 2015
    Продолжительность: 01:52:12-Перевод: Любительский (двухголосый закадровый) Parovoz Production-Cубтитры: нет
    Оригинальная аудиодорожка: нет-Режиссер: Кэтрин Хардвик / Catherine Hardwicke-В ролях: Дрю Бэрримор, Тони Коллетт, Доминик Купер, Пэдди Консидайн, Тайсон Риттер, Мем Ферда, Ной Хантли, Жаклин Биссет, Дженис Аккуа, Шарлотта Уббен-Описание: Картина рассказывает о двух лучших подругах, знакомых чуть ли не всю жизнь, чьи отношения разваливаются на части после того, как одна из них заболевает, а другая обнаруживает, что ждет ребенка.---Качество видео: HDRip
    Формат видео: AVI-Видео: XviD, 720x304 (2.35:1), 23.976 fps, ~1650 kbps avg, 0.31 bit/pixel
    Аудио: 48 kHz, AC3 Dolby Digital, 2/0 (L,R) ch, ~192 kbps-


    Complete name : C:\Users\1\Desktop\РАЗДАЧИ\Miss You Already (2015) HDRip.avi
    Format : AVI
    Format/Info : Audio Video Interleave
    File size : 1.45 GiB
    Duration : 1h 52mn
    Overall bit rate : 1 856 Kbps
    Writing application : VirtualDubMod | || (build 2550/release)
    Writing library : VirtualDubMod build 2550/release
    ID : 0
    Format : MPEG-4 Visual
    Format profile : Advanced Simple@L5
    Format settings, BVOP : 1
    Format settings, QPel : No
    Format settings, GMC : No warppoints
    Format settings, Matrix : Custom
    Codec ID : XVID
    Codec ID/Hint : XviD
    Duration : 1h 52mn
    Bit rate : 1 655 Kbps
    Width : 720 pixels
    Height : 304 pixels
    Display aspect ratio : 2.35:1
    Frame rate : 23.976 (23976/1000) fps
    Color space : YUV
    Chroma subsampling : 4:2:0
    Bit depth : 8 bits
    Scan type : Progressive
    Compression mode : Lossy
    Bits/(Pixel*Frame) : 0.315
    Stream size : 1.30 GiB (89%)
    Writing library : XviD 73
    ID : 1
    Format : AC-3
    Format/Info : Audio Coding 3
    Mode extension : CM (complete main)
    Format settings, Endianness : Big
    Codec ID : 2000
    Duration : 1h 52mn
    Bit rate mode : Constant
    Bit rate : 192 Kbps
    Channel(s) : 2 channels
    Channel positions : Front: L R
    Sampling rate : 48.0 KHz
    Frame rate : 31.250 fps (1536 spf)
    Compression mode : Lossy
    Stream size : 154 MiB (10%)
    Alignment : Split accross interleaves
    Interleave, duration : 42 ms (1.00 video frame)
    Interleave, preload duratio : 500 ms

    Скриншот c названием фильма


    Download .torrent

    Download free and at maximum speed!

    How to Download? · What is a torrent? · Ratings and Limitations

    The site does not extend and does not store electronic(digital) versions of products, and only gives access to a reference catalogue created by users on torrent-files which contain only lists of the hash-sums, the earnest entreaty, with complaints(abuse) to access directly to the user. Files for an exchange on tracker are given by users of a site, and the administration does not bear the responsibility for their maintenance. The request to not fill in the files protected by copyrights, and also files of the illegal maintenance!

    [Profile] [PM]
    Display posts from previous:    
    Reply to topic

    The time now is: Today 10:10

    All times are GMT + 3 Hours

    You cannot post new topics in this forum
    You cannot reply to topics in this forum
    You cannot edit your posts in this forum
    You cannot delete your posts in this forum
    You cannot vote in polls in this forum
    You cannot attach files in this forum
    You cannot download files in this forum