BitTorrentTracker PerecTracker.org
BitTorrentTracker PerecTracker.org
    
Регистрация  ·  Вход
 
 · 
Забыли пароль?

  • Строго на запад / Slow West (Джон Маклин / John Maclean) [2015, Великобритания, Новая Зеландия, боевик, триллер, вестерн, BDRip-AVC] Dub

    Ответить на тему
     
    Автор Сообщение

    rechyn

    Создавать темы 08-Фев-2016 15:52

           

    [Цитировать]

    Строго на запад / Slow West«Wanted dead or dead»-Страна: Великобритания, Новая Зеландия
    Жанр: боевик, триллер, вестерн
    Год выпуска: 2015
    Продолжительность: 01:23:06
    Перевод: Профессиональный (полное дублирование) (iTunes)
    Cубтитры: нет
    Режиссёр: Джон Маклин / John Maclean
    В ролях: Майкл Фассбендер, Бен Мендельсон, Коди Смит-МакФи, Рори МакКанн, Брук Уильямс, Карен Писториус, Алекс МакКуин, Энди МакФи, Джеффри Томас, Калани Кейпо
    Описание: Фильм рассказывает историю 17-летнего паренька по имени Джей Кавендиш, который путешествует по всей американской границе в поисках девушки, которую он любит. В опасном приключении его сопровождает таинственный путешественник Сайлас.

    Качество видео: BDRip-AVC (исходник - Blu-ray|SLOW_WEST_REMUX)
    Формат видео: MKV
    Видео: x264, 1076:648 (5:3), 23,976 fps, ~2135 kbps, 0.128 bit/pixel
    Аудио: 48 kHz, AC3 Dolby Digital, 3/2 (L,C,R,l,r) + LFE ch, ~384 kbps
    MediaInfo | x264 log
    Format : Matroska
    Format version : Version 4 / Version 2
    File size : 1.46 GiB
    Duration : 1h 23mn
    Overall bit rate : 2 518 Kbps
    Movie name : Строго на запад / Slow West (2015) :: AFM ::
    Encoded date : UTC 2016-02-08 05:47:15
    Writing application : mkvmerge v8.3.0 ('Over the Horizon') 32bit
    Writing library : libebml v1.3.1 + libmatroska v1.4.2
    Video
    ID : 1
    Format : AVC
    Format/Info : Advanced Video Codec
    Format profile : High@L4.1
    Format settings, CABAC : Yes
    Format settings, ReFrames : 10 frames
    Codec ID : V_MPEG4/ISO/AVC
    Duration : 1h 23mn
    Bit rate : 2 135 Kbps
    Width : 1 076 pixels
    Height : 648 pixels
    Display aspect ratio : 5:3
    Frame rate mode : Constant
    Frame rate : 24.000 fps
    Color space : YUV
    Chroma subsampling : 4:2:0
    Bit depth : 8 bits
    Scan type : Progressive
    Bits/(Pixel*Frame) : 0.128
    Stream size : 1.21 GiB (83%)
    Title : BDRip by AFM [RuTracker.org]
    Writing library : x264 core 148 r2665kMod a01e339
    Encoding settings : cabac=1 / ref=10 / deblock=1:-3:-2 / analyse=0x3:0x113 / me=umh / subme=10 / psy=1 / fade_compensate=0.00 / psy_rd=1.00:0.05 / mixed_ref=1 / me_range=32 / chroma_me=1 / trellis=2 / 8x8dct=1 / cqm=0 / deadzone=21,11 / fast_pskip=0 / chroma_qp_offset=-3 / threads=6 / lookahead_threads=1 / sliced_threads=0 / nr=0 / decimate=0 / interlaced=0 / bluray_compat=0 / constrained_intra=0 / fgo=0 / bframes=13 / b_pyramid=2 / b_adapt=2 / b_bias=0 / direct=3 / weightb=1 / open_gop=0 / weightp=2 / keyint=250 / keyint_min=24 / scenecut=40 / intra_refresh=0 / rc_lookahead=40 / rc=2pass / mbtree=0 / bitrate=2135 / ratetol=1.0 / qcomp=0.65 / qpmin=0 / qpmax=69 / qpstep=4 / cplxblur=20.0 / qblur=0.5 / vbv_maxrate=50000 / vbv_bufsize=62500 / nal_hrd=none / filler=0 / ip_ratio=1.35 / pb_ratio=1.30 / aq=2:0.80 / zones=112800,119662,q=35
    Language : English
    Default : Yes
    Forced : No
    Audio
    ID : 2
    Format : AC-3
    Format/Info : Audio Coding 3
    Mode extension : CM (complete main)
    Format settings, Endianness : Big
    Codec ID : A_AC3
    Duration : 1h 23mn
    Bit rate mode : Constant
    Bit rate : 384 Kbps
    Channel(s) : 6 channels
    Channel positions : Front: L C R, Side: L R, LFE
    Sampling rate : 48.0 KHz
    Compression mode : Lossy
    Stream size : 228 MiB (15%)
    Title : Dub, AC3 5.1 384 kbps
    Language : Russian
    Default : Yes
    Forced : No

    x264

    x264 [info]: frame I:1009 Avg QP:15.89 size:120194
    x264 [info]: frame P:29455 Avg QP:20.51 size: 23255
    x264 [info]: frame B:89198 Avg QP:20.96 size: 5869
    x264 [info]: consecutive B-frames: 2.5% 4.9% 19.4% 21.4% 14.1% 28.9% 3.5% 1.8% 0.9% 0.6% 0.6% 0.5% 0.2% 0.6%
    x264 [info]: mb I I16..4: 6.4% 71.7% 21.8%
    x264 [info]: mb P I16..4: 0.8% 5.5% 0.9% P16..4: 38.5% 21.1% 13.8% 0.0% 0.0% skip:19.5%
    x264 [info]: mb B I16..4: 0.1% 0.4% 0.1% B16..8: 29.9% 6.8% 2.2% direct: 3.4% skip:57.1% L0:40.7% L1:47.1% BI:12.2%
    x264 [info]: 8x8 transform intra:75.0% inter:59.1%
    x264 [info]: direct mvs spatial:95.5% temporal:4.5%
    x264 [info]: coded y,uvDC,uvAC intra: 80.2% 79.9% 62.8% inter: 14.8% 13.9% 7.7%
    x264 [info]: i16 v,h,dc,p: 35% 15% 13% 37%
    x264 [info]: i8 v,h,dc,ddl,ddr,vr,hd,vl,hu: 13% 10% 10% 8% 12% 12% 12% 11% 12%
    x264 [info]: i4 v,h,dc,ddl,ddr,vr,hd,vl,hu: 11% 16% 5% 8% 13% 12% 12% 10% 12%
    x264 [info]: i8c dc,h,v,p: 46% 22% 17% 14%
    x264 [info]: Weighted P-Frames: Y:5.0% UV:2.5%
    x264 [info]: ref P L0: 50.9% 10.0% 16.1% 5.5% 4.7% 3.6% 3.3% 1.9% 1.9% 1.8% 0.5% 0.0%
    x264 [info]: ref B L0: 71.6% 12.1% 5.9% 3.1% 2.3% 2.0% 1.7% 0.8% 0.4%
    x264 [info]: ref B L1: 91.8% 8.2%
    x264 [info]: kb/s:2133.66

    Скриншоты

    с названием

    Скачать .torrent

    Скачать торрент-файл бесплатно и на максимальной скорости!

    Как скачивать? · Что такое торрент? · Рейтинг и ограничения

    !ВНИМАНИЕ!
    Сайт не распространяет и не хранит электронные версии произведений, а занимается лишь лишь предоставлением доступа к создаваемому пользователями каталогу ссылок на торрент-файлы, которые содержат только списки хеш-сумм, убедительная просьба с жалобами обращаться напрямую к пользователю. Файлы для обмена на трекере предоставлены пользователями сайта, и администрация не несёт ответственности за их содержание. Просьба не заливать файлы, защищенные авторскими правами, а также файлы нелегального содержания!


    _________________
    [Профиль] [ЛС]
    Показать сообщения:    
    Ответить на тему

    Текущее время: Сегодня, в 14:48

    Часовой пояс: GMT + 2



    Вы не можете начинать темы
    Вы не можете отвечать на сообщения
    Вы не можете редактировать свои сообщения
    Вы не можете удалять свои сообщения
    Вы не можете голосовать в опросах
    Вы не можете прикреплять файлы к сообщениям
    Вы не можете скачивать файлы