Register  ·  Log in
Forgot password?

  • СуперБоб / SuperBob (Джон Древер / Jon Drever) [2015, Великобритания, боевик, мелодрама, комедия, WEB-DLRip] DVO (Ozz tv) + Sub Rus + Original Eng

    Reply to topic
    Author Message


    Post 08-Feb-2016 12:40



    СуперБоб / SuperBob-Страна: Великобритания
    Студия: Fyzz Facility Film Five, The, Grain Media, Jonescompany Productions, thefyzz
    Жанр: боевик, мелодрама, комедия
    Год выпуска: 2015
    Продолжительность: 01:22:20
    Перевод: Профессиональный (двухголосый закадровый) Ozz tv
    Cубтитры: русские
    Оригинальная аудиодорожка: английская
    Режиссер: Джон Древер / Jon Drever
    В ролях: Бретт Голдстин, Кэтрин Тейт, Наталия Тена, Лора Хэддок, Рут Шин, Камилла Бипут, Дэвид Бротон, Пэт Карни, Кристиан Райан Контрерарс, Эмили Коркоран
    Описание: Один день из жизни единственного в Лондоне (и во всём мире) супергероя — застенчивого бывшего почтальона, а ныне госслужащего Боба Кеннера. Его первое за 6 лет свидание рискует быть сорванным, потому что личная жизнь никак не вяжется со спасением мира.
    Озвучка релиз-группы:
    Перевод: Максим Чайкин
    Роли озвучивали: Ирина Воронова и Алексей Серёгин

    Тип релиза: WEB-DLRip [Neon_project]
    Контейнер: AVI
    Видео: 720x304 (2.37:1), 24 fps, XviD build 50 ~2141 kbps avg, 0.41 bit/pixel
    Аудио 1: 48 kHz, AC3 Dolby Digital, 3/2 (L,C,R,l,r) + LFE ch, ~384 kbps (русская)
    Аудио 2: 48 kHz, AC3 Dolby Digital, 3/2 (L,C,R,l,r) + LFE ch, ~384 kbps (английская) отдельно
    Формат субтитров: softsub (SRT)


    \SuperBob.2015.WEB-DLRip\SuperBob.2015.WEB-DLRip.avi General Complete name : \SuperBob.2015.WEB-DLRip\SuperBob.2015.WEB-DLRip.avi Format : AVI Format/Info : Audio Video Interleave File size : 1.46 GiB Duration : 1h 22mn Overall bit rate : 2 535 Kbps Movie name : СуперБоб / SuperBob Director : Джон Древер / Jon Drever Genre : боевик, мелодрама, комедия Writing application : VirtualDubMod | || (build 2550/release) Original source form/Name : фильм Comment : Neon_project Video #0 ID : 0 Format : MPEG-4 Visual Format profile : Advanced Simple@L5 Format settings, BVOP : 1 Format settings, QPel : No Format settings, GMC : No warppoints Format settings, Matrix : Custom Codec ID : XVID Codec ID/Hint : XviD Duration : 1h 22mn Bit rate : 2 141 Kbps Width : 720 pixels Height : 304 pixels Display aspect ratio : 2.35:1 Frame rate : 24.000 fps Color space : YUV Chroma subsampling : 4:2:0 Bit depth : 8 bits Scan type : Progressive Compression mode : Lossy Bits/(Pixel*Frame) : 0.408 Stream size : 1.23 GiB (84%) Writing library : XviD 1.2.1 (UTC 2008-12-04) Audio #1 ID : 1 Format : AC-3 Format/Info : Audio Coding 3 Mode extension : CM (complete main) Format settings, Endianness : Big Codec ID : 2000 Duration : 1h 22mn Bit rate mode : Constant Bit rate : 384 Kbps Channel(s) : 6 channels Channel positions : Front: L C R, Side: L R, LFE Sampling rate : 48.0 KHz Bit depth : 16 bits Compression mode : Lossy Stream size : 226 MiB (15%) Alignment : Split accross interleaves Interleave, duration : 42 ms (1.00 video frame) Interleave, preload duration : 500 ms

    Скриншот c названием фильма


    Download .torrent

    Download free and at maximum speed!

    How to Download? · What is a torrent? · Ratings and Limitations

    The site does not extend and does not store electronic(digital) versions of products, and only gives access to a reference catalogue created by users on torrent-files which contain only lists of the hash-sums, the earnest entreaty, with complaints(abuse) to access directly to the user. Files for an exchange on tracker are given by users of a site, and the administration does not bear the responsibility for their maintenance. The request to not fill in the files protected by copyrights, and also files of the illegal maintenance!

    [Profile] [PM]
    Display posts from previous:    
    Reply to topic

    The time now is: Today 21:54

    All times are GMT + 3 Hours

    You cannot post new topics in this forum
    You cannot reply to topics in this forum
    You cannot edit your posts in this forum
    You cannot delete your posts in this forum
    You cannot vote in polls in this forum
    You cannot attach files in this forum
    You cannot download files in this forum