Register  ·  Log in
Forgot password?

  • Строго на запад / Slow West (Джон Маклин / John Maclean) [2015, Великобритания, Новая Зеландия, Боевик, Триллер, Вестерн, BDRip] Dub (iTunes)

    Reply to topic
    Author Message


    Post 08-Feb-2016 12:40



    -Строго на запад / Slow West
    «Wanted dead or dead»--Страна: Великобритания, Новая Зеландия
    Жанр: Боевик, Триллер, Вестерн
    Год выпуска: 2015
    Продолжительность: 01:23:05-Перевод: Профессиональный (дублированный) iTunes-Cубтитры: нет
    Оригинальная аудиодорожка: нет-Режиссер: Джон Маклин / John Maclean-В ролях: Майкл Фассбендер, Бен Мендельсон, Коди Смит-МакФи, Рори МакКанн, Брук Уильямс, Карен Писториус, Алекс МакКуин, Энди МакФи, Джеффри Томас, Калани Кейпо-Описание: Фильм рассказывает историю 17-летнего паренька по имени Джей Кавендиш, который путешествует по всей американской границе в поисках девушки, которую он любит. В опасном приключении его сопровождает таинственный путешественник Сайлас.---Релиз: Twi7ter
    Качество видео: BDRip (исх. SLOW_WEST_REMUX_HDCLUB)
    Формат видео: AVI-Видео: XviD, 720x432 (5:3), 24,000 fps, ~2000 kbps avg, 0.27 bit/pixel
    Аудио: 48 kHz, AC3 Dolby Digital, 3/2 (L,C,R,l,r) + LFE ch, ~384 kbps avg-


    Complete name : C:\Users\1\Desktop\РАЗДАЧИ\Medlennyj.zapad.2015.D.BDRip_by_Twi7ter.avi
    Format : AVI
    Format/Info : Audio Video Interleave
    File size : 1.42 GiB
    Duration : 1h 23mn
    Overall bit rate : 2 451 Kbps
    Movie name : Slow West (2015) HDRip
    ID : 0
    Format : MPEG-4 Visual
    Format profile : Advanced Simple@L5
    Format settings, BVOP : 2
    Format settings, QPel : No
    Format settings, GMC : No warppoints
    Format settings, Matrix : Custom
    Codec ID : XVID
    Codec ID/Hint : XviD
    Duration : 1h 23mn
    Bit rate : 2 058 Kbps
    Width : 720 pixels
    Height : 432 pixels
    Display aspect ratio : 5:3
    Frame rate : 24.000 fps
    Color space : YUV
    Chroma subsampling : 4:2:0
    Bit depth : 8 bits
    Scan type : Progressive
    Compression mode : Lossy
    Bits/(Pixel*Frame) : 0.276
    Stream size : 1.19 GiB (84%)
    Writing library : XviD 73
    ID : 1
    Format : AC-3
    Format/Info : Audio Coding 3
    Mode extension : CM (complete main)
    Format settings, Endianness : Big
    Codec ID : 2000
    Duration : 1h 22mn
    Bit rate mode : Constant
    Bit rate : 384 Kbps
    Channel(s) : 6 channels
    Channel positions : Front: L C R, Side: L R, LFE
    Sampling rate : 48.0 KHz
    Frame rate : 31.250 fps (1536 spf)
    Compression mode : Lossy
    Stream size : 228 MiB (16%)
    Alignment : Split accross interleaves
    Interleave, duration : 42 ms (1.00 video frame)
    Interleave, preload duratio : 500 ms

    Скриншот c названием фильма


    Download .torrent

    Download free and at maximum speed!

    How to Download? · What is a torrent? · Ratings and Limitations

    The site does not extend and does not store electronic(digital) versions of products, and only gives access to a reference catalogue created by users on torrent-files which contain only lists of the hash-sums, the earnest entreaty, with complaints(abuse) to access directly to the user. Files for an exchange on tracker are given by users of a site, and the administration does not bear the responsibility for their maintenance. The request to not fill in the files protected by copyrights, and also files of the illegal maintenance!

    [Profile] [PM]
    Display posts from previous:    
    Reply to topic

    The time now is: Today 17:34

    All times are GMT + 3 Hours

    You cannot post new topics in this forum
    You cannot reply to topics in this forum
    You cannot edit your posts in this forum
    You cannot delete your posts in this forum
    You cannot vote in polls in this forum
    You cannot attach files in this forum
    You cannot download files in this forum