BitTorrentTracker PerecTracker.org
BitTorrentTracker PerecTracker.org
    
Регистрация  ·  Вход
 
 · 
Забыли пароль?

  • Строго на запад / Slow West (Джон Маклин / John Maclean) [2015, Великобритания, Новая Зеландия, Боевик, Триллер, Вестерн, BDRip] Dub (iTunes)

    Ответить на тему
     
    Автор Сообщение

    rechyn

    Создавать темы 08-Фев-2016 11:40

           

    [Цитировать]

    -Строго на запад / Slow West
    «Wanted dead or dead»--Страна: Великобритания, Новая Зеландия
    Жанр: Боевик, Триллер, Вестерн
    Год выпуска: 2015
    Продолжительность: 01:23:05-Перевод: Профессиональный (дублированный) iTunes-Cубтитры: нет
    Оригинальная аудиодорожка: нет-Режиссер: Джон Маклин / John Maclean-В ролях: Майкл Фассбендер, Бен Мендельсон, Коди Смит-МакФи, Рори МакКанн, Брук Уильямс, Карен Писториус, Алекс МакКуин, Энди МакФи, Джеффри Томас, Калани Кейпо-Описание: Фильм рассказывает историю 17-летнего паренька по имени Джей Кавендиш, который путешествует по всей американской границе в поисках девушки, которую он любит. В опасном приключении его сопровождает таинственный путешественник Сайлас.---Релиз: Twi7ter
    Качество видео: BDRip (исх. SLOW_WEST_REMUX_HDCLUB)
    Формат видео: AVI-Видео: XviD, 720x432 (5:3), 24,000 fps, ~2000 kbps avg, 0.27 bit/pixel
    Аудио: 48 kHz, AC3 Dolby Digital, 3/2 (L,C,R,l,r) + LFE ch, ~384 kbps avg-

    MediaInfo

    Complete name : C:\Users\1\Desktop\РАЗДАЧИ\Medlennyj.zapad.2015.D.BDRip_by_Twi7ter.avi
    Format : AVI
    Format/Info : Audio Video Interleave
    File size : 1.42 GiB
    Duration : 1h 23mn
    Overall bit rate : 2 451 Kbps
    Movie name : Slow West (2015) HDRip
    Video
    ID : 0
    Format : MPEG-4 Visual
    Format profile : Advanced Simple@L5
    Format settings, BVOP : 2
    Format settings, QPel : No
    Format settings, GMC : No warppoints
    Format settings, Matrix : Custom
    Codec ID : XVID
    Codec ID/Hint : XviD
    Duration : 1h 23mn
    Bit rate : 2 058 Kbps
    Width : 720 pixels
    Height : 432 pixels
    Display aspect ratio : 5:3
    Frame rate : 24.000 fps
    Color space : YUV
    Chroma subsampling : 4:2:0
    Bit depth : 8 bits
    Scan type : Progressive
    Compression mode : Lossy
    Bits/(Pixel*Frame) : 0.276
    Stream size : 1.19 GiB (84%)
    Writing library : XviD 73
    Audio
    ID : 1
    Format : AC-3
    Format/Info : Audio Coding 3
    Mode extension : CM (complete main)
    Format settings, Endianness : Big
    Codec ID : 2000
    Duration : 1h 22mn
    Bit rate mode : Constant
    Bit rate : 384 Kbps
    Channel(s) : 6 channels
    Channel positions : Front: L C R, Side: L R, LFE
    Sampling rate : 48.0 KHz
    Frame rate : 31.250 fps (1536 spf)
    Compression mode : Lossy
    Stream size : 228 MiB (16%)
    Alignment : Split accross interleaves
    Interleave, duration : 42 ms (1.00 video frame)
    Interleave, preload duratio : 500 ms

    Скриншот c названием фильма

    Скриншоты

    Скачать .torrent

    Скачать торрент-файл бесплатно и на максимальной скорости!

    Как скачивать? · Что такое торрент? · Рейтинг и ограничения

    !ВНИМАНИЕ!
    Сайт не распространяет и не хранит электронные версии произведений, а занимается лишь лишь предоставлением доступа к создаваемому пользователями каталогу ссылок на торрент-файлы, которые содержат только списки хеш-сумм, убедительная просьба с жалобами обращаться напрямую к пользователю. Файлы для обмена на трекере предоставлены пользователями сайта, и администрация не несёт ответственности за их содержание. Просьба не заливать файлы, защищенные авторскими правами, а также файлы нелегального содержания!


    _________________
    [Профиль] [ЛС]
    Показать сообщения:    
    Ответить на тему

    Текущее время: Сегодня, в 23:11

    Часовой пояс: GMT + 2



    Вы не можете начинать темы
    Вы не можете отвечать на сообщения
    Вы не можете редактировать свои сообщения
    Вы не можете удалять свои сообщения
    Вы не можете голосовать в опросах
    Вы не можете прикреплять файлы к сообщениям
    Вы не можете скачивать файлы