BitTorrentTracker PerecTracker.org
BitTorrentTracker PerecTracker.org
    
Регистрация  ·  Вход
 
 · 
Забыли пароль?

  • Золушка / Cinderella (Кеннет Брана / Kennet Brana) [2015, США, Великобритания, Фэнтези, драма, мелодрама, семейный, BDRip-AVC] Dub + Sub Rus, Eng + Original Eng

    Ответить на тему
     
    Автор Сообщение

    rechyn

    Создавать темы 08-Фев-2016 11:40

           

    [Цитировать]

    Золушка
    Cinderella
    «Midnight is just the beginning.»
    -Страна: США, Великобритания
    Жанр: Фэнтези, драма, мелодрама, семейный
    Год выпуска: 2015
    Продолжительность: 01:45:22
    Перевод: Профессиональный (дублированный)
    Cубтитры: Rus, Eng
    Оригинальная аудиодорожка: английский
    Режиссер: Кеннет Брана / Kennet Brana
    В ролях:
    Лили Джеймс | Lily James
    Кейт Бланшетт | Cate Blanchett
    Ричард Мэдден, Хелена Бонем Картер, Нонсо Анози, Стеллан Скарсгард, Софи МакШера, Холлидей Грейнджер, Дерек Джекоби, Бен Чаплин-ОписаниеОтец молодой девушки по имени Элла, овдовев, женится во второй раз, и вскоре Элла оказывается один на один с жадными и завистливыми новыми родственницами – мачехой Леди Тремэйн и ее дочерьми - Анастасией и Дризеллой. Из хозяйки дома она превращается в служанку, вечно испачканную золой, за что и получает от своих сварливых сводных сестриц прозвище – Золушка. Несмотря на злоключения, выпавшие на ее долю, Золушка не отчаивается, ведь даже в самые тяжелые моменты находится что-то, что помогает ей думать о хорошем: например, случайная встреча на лесной тропинке с прекрасным юношей. Элла даже не предполагает, что встретилась с самим принцем, и что вскоре Фея-крестная навсегда поменяет её жизнь к лучшему.-Сэмпл

    IMDb: 7.00 (90 898)
    Качество видео: BDRip-AVC CINDERELLA_REMUX_HDCLUB
    Формат видео: MKV
    Видео: AVC 2084 Kbps 960 x 402 (2.388) 23.976 fps
    Аудио: AC-3 384 Kbps 6 channels, 48.0 KHz Rus
    Аудио 2: AC-3 384 Kbps 6 channels, 48.0 KHz Eng
    MediaInfo | Log

    Log

    x264 [info]: frame I:1205 Avg QP:15.63 size: 68768
    x264 [info]: frame P:33599 Avg QP:17.77 size: 23548
    x264 [info]: frame B:116774 Avg QP:20.57 size: 7050
    x264 [info]: consecutive B-frames: 2.4% 3.1% 8.5% 21.7% 20.7% 27.6% 6.8% 3.5% 2.2% 1.0% 0.8% 0.5% 0.5% 0.3% 0.2%
    x264 [info]: mb I I16..4: 7.0% 68.2% 24.8%
    x264 [info]: mb P I16..4: 0.3% 9.1% 2.6% P16..4: 28.0% 34.2% 15.9% 3.6% 0.5% skip: 5.9%
    x264 [info]: mb B I16..4: 0.1% 1.2% 0.5% B16..8: 32.4% 20.9% 3.7% direct: 5.3% skip:36.0% L0:39.9% L1:43.0% BI:17.1%
    x264 [info]: 8x8 transform intra:73.0% inter:52.5%
    x264 [info]: direct mvs spatial:99.8% temporal:0.2%
    x264 [info]: coded y,uvDC,uvAC intra: 87.0% 93.2% 81.4% inter: 22.9% 20.9% 8.5%
    x264 [info]: i16 v,h,dc,p: 33% 11% 10% 46%
    x264 [info]: i8 v,h,dc,ddl,ddr,vr,hd,vl,hu: 17% 8% 8% 8% 12% 12% 11% 11% 12%
    x264 [info]: i4 v,h,dc,ddl,ddr,vr,hd,vl,hu: 41% 5% 5% 6% 9% 9% 8% 8% 8%
    x264 [info]: i8c dc,h,v,p: 39% 22% 22% 16%
    x264 [info]: Weighted P-Frames: Y:6.3% UV:3.7%
    x264 [info]: ref P L0: 49.8% 12.4% 15.9% 5.6% 4.3% 3.1% 2.7% 1.5% 1.4% 1.1% 1.1% 1.0% 0.2% 0.0%
    x264 [info]: ref B L0: 74.8% 11.1% 5.2% 2.6% 1.8% 1.4% 1.2% 0.8% 0.7% 0.4% 0.2%
    x264 [info]: ref B L1: 92.3% 7.7%
    x264 [info]: kb/s:2147.83
    x264 [total]: encoded 151578 frames, 11.36 fps, 2147.83 kb/s, duration 3:42:24.19
    Format : Matroska
    Format version : Version 4 / Version 2
    File size : 2.15 GiB
    Duration : 1h 45mn
    Overall bit rate : 2 910 Kbps
    Encoded date : UTC 2016-02-07 20:54:46
    Writing application : mkvmerge v6.7.0 ('Back to the Ground') 32bit built on Jan 8 2014 15:03:17
    Writing library : libebml v1.3.0 + libmatroska v1.4.1
    Video
    ID : 1
    Format : AVC
    Format/Info : Advanced Video Codec
    Format profile : High@L4.1
    Format settings, CABAC : Yes
    Format settings, ReFrames : 12 frames
    Codec ID : V_MPEG4/ISO/AVC
    Duration : 1h 45mn
    Bit rate : 2 084 Kbps
    Width : 960 pixels
    Height : 402 pixels
    Display aspect ratio : 2.40:1
    Frame rate mode : Constant
    Frame rate : 23.976 fps
    Color space : YUV
    Chroma subsampling : 4:2:0
    Bit depth : 8 bits
    Scan type : Progressive
    Bits/(Pixel*Frame) : 0.225
    Stream size : 1.54 GiB (72%)
    Title : Cinderella (2015) [perectracker.org]
    Writing library : x264 core 148 r2638kMod 7599210
    Encoding settings : cabac=1 / ref=12 / deblock=1:-2:-2 / analyse=0x3:0x133 / me=umh / subme=11 / psy=1 / fade_compensate=0.00 / psy_rd=1.00:0.05 / mixed_ref=1 / me_range=48 / chroma_me=1 / trellis=2 / 8x8dct=1 / cqm=0 / deadzone=21,11 / fast_pskip=0 / chroma_qp_offset=-3 / threads=12 / lookahead_threads=3 / sliced_threads=0 / nr=0 / decimate=1 / interlaced=0 / bluray_compat=0 / constrained_intra=0 / fgo=0 / bframes=14 / b_pyramid=2 / b_adapt=2 / b_bias=0 / direct=3 / weightb=1 / open_gop=0 / weightp=2 / keyint=250 / keyint_min=23 / scenecut=40 / intra_refresh=0 / rc_lookahead=60 / rc=crf / mbtree=0 / crf=17.6000 / qcomp=0.60 / qpmin=0 / qpmax=69 / qpstep=4 / vbv_maxrate=50000 / vbv_bufsize=62500 / crf_max=0.0 / nal_hrd=none / filler=0 / ip_ratio=1.40 / pb_ratio=1.30 / aq=3:0.90
    Language : English
    Default : Yes
    Forced : No
    Audio #1
    ID : 2
    Format : AC-3
    Format/Info : Audio Coding 3
    Mode extension : CM (complete main)
    Format settings, Endianness : Big
    Codec ID : A_AC3
    Duration : 1h 45mn
    Bit rate mode : Constant
    Bit rate : 384 Kbps
    Channel(s) : 6 channels
    Channel positions : Front: L C R, Side: L R, LFE
    Sampling rate : 48.0 KHz
    Compression mode : Lossy
    Stream size : 290 MiB (13%)
    Title : DUB
    Language : Russian
    Default : Yes
    Forced : No
    Audio #2
    ID : 3
    Format : AC-3
    Format/Info : Audio Coding 3
    Mode extension : CM (complete main)
    Format settings, Endianness : Big
    Codec ID : A_AC3
    Duration : 1h 45mn
    Bit rate mode : Constant
    Bit rate : 384 Kbps
    Channel(s) : 6 channels
    Channel positions : Front: L C R, Side: L R, LFE
    Sampling rate : 48.0 KHz
    Compression mode : Lossy
    Stream size : 290 MiB (13%)
    Title : Original
    Language : English
    Default : No
    Forced : No
    Text #1
    ID : 4
    Format : UTF-8
    Codec ID : S_TEXT/UTF8
    Codec ID/Info : UTF-8 Plain Text
    Title : Full
    Language : Russian
    Default : No
    Forced : No
    Text #2
    ID : 5
    Format : UTF-8
    Codec ID : S_TEXT/UTF8
    Codec ID/Info : UTF-8 Plain Text
    Title : Full
    Language : English
    Default : No
    Forced : No
    Text #3
    ID : 6
    Format : UTF-8
    Codec ID : S_TEXT/UTF8
    Codec ID/Info : UTF-8 Plain Text
    Title : SDH
    Language : English
    Default : No
    Forced : No
    Menu
    00:00:00.000 : en:Chapter 01
    00:06:35.436 : en:Chapter 02
    00:13:58.587 : en:Chapter 03
    00:17:56.116 : en:Chapter 04
    00:22:05.574 : en:Chapter 05
    00:26:36.761 : en:Chapter 06
    00:31:17.876 : en:Chapter 07
    00:34:37.700 : en:Chapter 08
    00:38:39.400 : en:Chapter 09
    00:42:54.697 : en:Chapter 10
    00:52:52.752 : en:Chapter 11
    01:03:13.956 : en:Chapter 12
    01:10:54.667 : en:Chapter 13
    01:16:46.810 : en:Chapter 14
    01:20:41.753 : en:Chapter 15
    01:25:36.089 : en:Chapter 16
    01:28:27.176 : en:Chapter 17
    01:39:11.528 : en:Chapter 18

    Скриншоты




    Скачать .torrent

    Скачать торрент-файл бесплатно и на максимальной скорости!

    Как скачивать? · Что такое торрент? · Рейтинг и ограничения

    !ВНИМАНИЕ!
    Сайт не распространяет и не хранит электронные версии произведений, а занимается лишь лишь предоставлением доступа к создаваемому пользователями каталогу ссылок на торрент-файлы, которые содержат только списки хеш-сумм, убедительная просьба с жалобами обращаться напрямую к пользователю. Файлы для обмена на трекере предоставлены пользователями сайта, и администрация не несёт ответственности за их содержание. Просьба не заливать файлы, защищенные авторскими правами, а также файлы нелегального содержания!


    _________________
    [Профиль] [ЛС]
    Показать сообщения:    
    Ответить на тему

    Текущее время: Сегодня, в 12:16

    Часовой пояс: GMT + 2



    Вы не можете начинать темы
    Вы не можете отвечать на сообщения
    Вы не можете редактировать свои сообщения
    Вы не можете удалять свои сообщения
    Вы не можете голосовать в опросах
    Вы не можете прикреплять файлы к сообщениям
    Вы не можете скачивать файлы