Register  ·  Log in
Forgot password?

  • Хуже, чем ложь / Misconduct (Шинтаро Шимосава / Shintaro Shimosawa) [2016, США, Триллер, Драма, WEB-DLRip] DVO

    Reply to topic
    Author Message


    Post 08-Feb-2016 01:39



    Хуже, чем ложь
    -Год выпуска: 2016
    Страна: США
    Жанр: Триллер, Драма
    Продолжительность: 01:45:52
    Перевод: Любительский (двухголосый закадровый) [den904 & DeadSno]
    Субтитры: нет
    Оригинальная аудиодорожка: нет-Режиссер: Шинтаро Шимосава / Shintaro Shimosawa-В ролях: Джош Дюамель, Аль Пачино, Энтони Хопкинс, Элис Ив, Малин Акерман, Джулия Стайлз, Глен Пауэлл, Ли Бён Хон, Крис Маркетт, Шона Гастян-Описание: Когда амбициозный молодой юрист берется за большое дело против влиятельного и безжалостного исполнительного директора крупной фармацевтической компании, он оказывается втянут в мир шантажа и коррупции.- -Семпл:Качество видео: WEB-DLRip (исходник WEB-DL 720p)
    Формат видео: AVI
    Видео: 720x304 (2.37:1), 23.976 fps, XviD build 73 ~1846 kbps avg, 0.35 bit/pixel
    Аудио: 48 kHz, AC3 Dolby Digital, 2/0 (L,R) ch, ~128 kbps-


    Complete name : Misconduct.2016.L2.WEB-DLRip.avi
    Format : AVI
    Format/Info : Audio Video Interleave
    File size : 1.47 GiB
    Duration : 1h 45mn
    Overall bit rate : 1 984 Kbps
    Writing application : VirtualDubMod | || (build 2550/release)
    Writing library : VirtualDubMod build 2550/release
    ID : 0
    Format : MPEG-4 Visual
    Format profile : Advanced Simple@L5
    Format settings, BVOP : 1
    Format settings, QPel : No
    Format settings, GMC : No warppoints
    Format settings, Matrix : Custom
    Codec ID : XVID
    Codec ID/Hint : XviD
    Duration : 1h 45mn
    Bit rate : 1 846 Kbps
    Width : 720 pixels
    Height : 304 pixels
    Display aspect ratio : 2.35:1
    Frame rate : 23.976 (23976/1000) fps
    Color space : YUV
    Chroma subsampling : 4:2:0
    Bit depth : 8 bits
    Scan type : Progressive
    Compression mode : Lossy
    Bits/(Pixel*Frame) : 0.352
    Stream size : 1.37 GiB (93%)
    Writing library : XviD 73
    ID : 1
    Format : AC-3
    Format/Info : Audio Coding 3
    Mode extension : CM (complete main)
    Format settings, Endianness : Big
    Codec ID : 2000
    Duration : 1h 45mn
    Bit rate mode : Constant
    Bit rate : 128 Kbps
    Channel(s) : 2 channels
    Channel positions : Front: L R
    Sampling rate : 48.0 KHz
    Frame rate : 31.250 fps (1536 spf)
    Compression mode : Lossy
    Stream size : 96.9 MiB (6%)
    Alignment : Split accross interleaves
    Interleave, duration : 42 ms (1.00 video frame)
    Interleave, preload duratio : 500 ms


    Download .torrent

    Download free and at maximum speed!

    How to Download? · What is a torrent? · Ratings and Limitations

    The site does not extend and does not store electronic(digital) versions of products, and only gives access to a reference catalogue created by users on torrent-files which contain only lists of the hash-sums, the earnest entreaty, with complaints(abuse) to access directly to the user. Files for an exchange on tracker are given by users of a site, and the administration does not bear the responsibility for their maintenance. The request to not fill in the files protected by copyrights, and also files of the illegal maintenance!

    [Profile] [PM]
    Display posts from previous:    
    Reply to topic

    The time now is: Today 00:33

    All times are GMT + 3 Hours

    You cannot post new topics in this forum
    You cannot reply to topics in this forum
    You cannot edit your posts in this forum
    You cannot delete your posts in this forum
    You cannot vote in polls in this forum
    You cannot attach files in this forum
    You cannot download files in this forum