BitTorrentTracker PerecTracker.org
BitTorrentTracker PerecTracker.org
    
Регистрация  ·  Вход
 
 · 
Забыли пароль?

  • Морпехи 3: В осаде / Jarhead 3: The Siege (Уильям Кауфман / William Kaufman) [2016, США, боевик, военный, BDRip 1080p] Dub + Sub Rus, Eng + Original Eng

    Ответить на тему
     
    Автор Сообщение

    Flirldrerve

    Создавать темы 07-Фев-2016 20:27

           

    [Цитировать]

    Морпехи 3: В осаде / Jarhead 3: The Siege
    Страна: США
    Студия: Universal 1440 Entertainment
    Жанр: боевик, военный
    Год выпуска: 2016
    Продолжительность: 01:28:59
    Перевод: Профессиональный (дублированный)
    Cубтитры: Rus, Eng
    Оригинальная аудиодорожка: английский
    Режиссер: Уильям Кауфман / William Kaufman
    В ролях: Скотт Эдкинс, Чарли Вебер, Том Эйнсли, Эрик Валдез, Данте Баско, Саша Джексон, Деннис Хейсбёрт, Стефен Хоган, Джо Корригалл, Адриан Ховард
    Описание: Отряду морских пехотинцев, чья миссия — защита посольства США в одной из ближневосточных стран, приходится отражать внезапную атаку противника.

    Тип релиза: BDRip 1080p
    Контейнер: MKV
    Видео: MPEG-4 AVC, 14.5 Mбит/с, 1920x816, 23,976 fps
    Аудио: Rus, DTS, 768 kb/s (6 ch), 48 kHz
    Аудио 2: Eng, DTS, 1510 kb/s (6 ch), 48 kHz
    Формат субтитров: softsub (SRT)

    MediaInfo

    Format : Matroska
    Format version : Version 4 / Version 2
    File size : 10.6 GiB
    Duration : 1h 28mn
    Overall bit rate : 17.1 Mbps
    Movie name : Морпехи 3: В осаде. (Tonik)
    Encoded date : UTC 2016-02-05 03:11:26
    Writing application : mkvmerge v7.1.0 ('Good Love') 64bit built on Jul 27 2014 13:06:55
    Writing library : libebml v1.3.0 + libmatroska v1.4.1
    _STATISTICS_WRITING_APP : mkvmerge v7.1.0 ('Good Love') 64bit built on Jul 27 2014 13:06:55
    _STATISTICS_WRITING_DATE_UTC : 2016-02-05 03:11:26
    _STATISTICS_TAGS : BPS DURATION NUMBER_OF_FRAMES NUMBER_OF_BYTES
    DURATION : 01:28:59.209000000
    NUMBER_OF_FRAMES : 128013
    NUMBER_OF_BYTES : 9902675069
    Video
    ID : 1
    Format : AVC
    Format/Info : Advanced Video Codec
    Format profile : High@L4.1
    Format settings, CABAC : Yes
    Format settings, ReFrames : 5 frames
    Codec ID : V_MPEG4/ISO/AVC
    Duration : 1h 28mn
    Bit rate : 14.5 Mbps
    Width : 1 920 pixels
    Height : 816 pixels
    Display aspect ratio : 2.35:1
    Frame rate mode : Constant
    Frame rate : 23.976 fps
    Color space : YUV
    Chroma subsampling : 4:2:0
    Bit depth : 8 bits
    Scan type : Progressive
    Bits/(Pixel*Frame) : 0.386
    Stream size : 9.01 GiB (85%)
    Writing library : x264 core 148 r2665 a01e339
    Encoding settings : cabac=1 / ref=5 / deblock=1:-1:-1 / analyse=0x3:0x113 / me=umh / subme=10 / psy=1 / psy_rd=1.00:0.10 / mixed_ref=1 / me_range=48 / chroma_me=1 / trellis=2 / 8x8dct=1 / cqm=0 / deadzone=21,11 / fast_pskip=0 / chroma_qp_offset=-3 / threads=12 / lookahead_threads=2 / sliced_threads=0 / nr=0 / decimate=1 / interlaced=0 / bluray_compat=0 / constrained_intra=0 / bframes=7 / b_pyramid=2 / b_adapt=2 / b_bias=0 / direct=3 / weightb=1 / open_gop=0 / weightp=2 / keyint=250 / keyint_min=23 / scenecut=40 / intra_refresh=0 / rc_lookahead=120 / rc=crf / mbtree=1 / crf=15.6 / qcomp=0.70 / qpmin=0 / qpmax=69 / qpstep=4 / vbv_maxrate=30000 / vbv_bufsize=38000 / crf_max=0.0 / nal_hrd=none / filler=0 / ip_ratio=1.40 / aq=1:0.90
    Language : English
    Default : Yes
    Forced : No
    Color primaries : BT.709
    Transfer characteristics : BT.709
    Matrix coefficients : BT.709
    Audio #1
    ID : 2
    Format : DTS
    Format/Info : Digital Theater Systems
    Mode : 16
    Format settings, Endianness : Big
    Codec ID : A_DTS
    Duration : 1h 28mn
    Bit rate mode : Constant
    Bit rate : 768 Kbps
    Channel(s) : 6 channels
    Channel positions : Front: L C R, Side: L R, LFE
    Sampling rate : 48.0 KHz
    Bit depth : 24 bits
    Compression mode : Lossy
    Stream size : 489 MiB (4%)
    Language : Russian
    Default : Yes
    Forced : No
    Audio #2
    ID : 3
    Format : DTS
    Format/Info : Digital Theater Systems
    Mode : 16
    Format settings, Endianness : Big
    Codec ID : A_DTS
    Duration : 1h 28mn
    Bit rate mode : Constant
    Bit rate : 1 509 Kbps
    Channel(s) : 6 channels
    Channel positions : Front: L C R, Side: L R, LFE
    Sampling rate : 48.0 KHz
    Bit depth : 24 bits
    Compression mode : Lossy
    Stream size : 960 MiB (9%)
    Language : English
    Default : No
    Forced : No
    Text #1
    ID : 4
    Format : UTF-8
    Codec ID : S_TEXT/UTF8
    Codec ID/Info : UTF-8 Plain Text
    Title : Forced
    Language : Russian
    Default : Yes
    Forced : No
    Text #2
    ID : 5
    Format : UTF-8
    Codec ID : S_TEXT/UTF8
    Codec ID/Info : UTF-8 Plain Text
    Title : Full
    Language : Russian
    Default : No
    Forced : No
    Text #3
    ID : 6
    Format : UTF-8
    Codec ID : S_TEXT/UTF8
    Codec ID/Info : UTF-8 Plain Text
    Language : English
    Default : No
    Forced : No
    Text #4
    ID : 7
    Format : UTF-8
    Codec ID : S_TEXT/UTF8
    Codec ID/Info : UTF-8 Plain Text
    Title : SDH
    Language : English
    Default : No
    Forced : No
    Menu
    00:00:00.000 : en:Chapter 1
    00:05:05.263 : en:Chapter 2
    00:09:19.601 : en:Chapter 3
    00:14:26.199 : en:Chapter 4
    00:19:45.142 : en:Chapter 5
    00:23:39.793 : en:Chapter 6
    00:28:47.142 : en:Chapter 7
    00:34:03.291 : en:Chapter 8
    00:40:01.441 : en:Chapter 9
    00:46:18.609 : en:Chapter 10
    00:49:56.368 : en:Chapter 11
    00:54:46.617 : en:Chapter 12
    00:57:43.085 : en:Chapter 13
    01:01:56.171 : en:Chapter 14
    01:05:18.206 : en:Chapter 15
    01:08:21.889 : en:Chapter 16
    01:13:27.236 : en:Chapter 17
    01:19:02.529 : en:Chapter 18
    01:23:29.421 : en:Chapter 19
    01:25:34.379 : en:Chapter 20

    Скриншоты

    Скачать .torrent

    Скачать торрент-файл бесплатно и на максимальной скорости!

    Как скачивать? · Что такое торрент? · Рейтинг и ограничения

    !ВНИМАНИЕ!
    Сайт не распространяет и не хранит электронные версии произведений, а занимается лишь лишь предоставлением доступа к создаваемому пользователями каталогу ссылок на торрент-файлы, которые содержат только списки хеш-сумм, убедительная просьба с жалобами обращаться напрямую к пользователю. Файлы для обмена на трекере предоставлены пользователями сайта, и администрация не несёт ответственности за их содержание. Просьба не заливать файлы, защищенные авторскими правами, а также файлы нелегального содержания!


    _________________
    [Профиль] [ЛС]
    Показать сообщения:    
    Ответить на тему

    Текущее время: Сегодня, в 12:02

    Часовой пояс: GMT + 2



    Вы не можете начинать темы
    Вы не можете отвечать на сообщения
    Вы не можете редактировать свои сообщения
    Вы не можете удалять свои сообщения
    Вы не можете голосовать в опросах
    Вы не можете прикреплять файлы к сообщениям
    Вы не можете скачивать файлы