BitTorrentTracker PerecTracker.org
BitTorrentTracker PerecTracker.org
    
Регистрация  ·  Вход
 
 · 
Забыли пароль?

  • Бедная Liz (Алексей Лисовец) [2013, романтическая комедия, WEBRip]

    Ответить на тему
     
    Автор Сообщение

    rechyn

    Создавать темы 07-Фев-2016 16:15

           

    [Цитировать]

    Бедная LizЖанр: романтическая комедия
    Год выпуска: 2013
    Продолжительность: 01:34:43
    Режиссёр: Алексей Лисовец
    В ролях: Мария Машкова, Антон Пампушный, Ниёле Серёжникова, Александр Данильченко, Лина Будник, Дмитрий Лаленков, Екатерина Кистень, Николай Боклан, Наталья Корецкая, Любовь Тимошевская, Галина Корнеева, Николай Олейник, Вера Кобзарь, Алёна Колесниченко, Константин Корецкий, Михаил Кукуюк, Андрей Исаенко, Владимир Мовчан, Евгений Гашенко, Алексей Курилко, Игорь Мельников, Виталий Михальцов
    Описание: Сержант канадской полиции Джо Соколофф едет в далекую Россию выполнить последнюю просьбу своей любимой бабушки. Но с первых шагов на исторической родине все планы Джо рушатся – его грабят в поезде. Выскочив из поезда, 30-летний любитель родео и кантри–музыки, глядящий на мир радостными, широко открытыми глазами, оказывается в маленькой кубанской станице практически без денег...
    Доп. информация:

    Рип: waarheid
    Сэмпл:

    Качество видео: WEBRip
    Формат видео: AVI
    Видео: 704x400 (1.76:1), 25 fps, XviD build 73 ~1994 kbps avg, 0.28 bit/pixel
    Аудио: 48 kHz, AC3 Dolby Digital, 2/0 (L,R) ch, ~192 kbps

    MediaInfo

    Общее
    Полное имя : W:\Bednaya.Liz.2013_WEBRip_by_waarheid.avi
    Формат : AVI
    Формат/Информация : Audio Video Interleave
    Размер файла : 1,45 Гбайт
    Продолжительность : 1 ч. 34 м.
    Общий поток : 2197 Кбит/сек
    Программа кодирования : VirtualDubMod 1.5.10.3 | www.virtualdub-fr.org || (build 2550/release)
    Видео
    Идентификатор : 0
    Формат : MPEG-4 Visual
    Профиль формата : Advanced Simple@L5
    Параметр BVOP формата : 1
    Параметр QPel формата : Нет
    Параметр GMC формата : Без точки перехода
    Параметр матрицы формата : Default (MPEG)
    Идентификатор кодека : XVID
    Идентификатор кодека/Подсказка : XviD
    Продолжительность : 1 ч. 34 м.
    Битрейт : 1995 Кбит/сек
    Ширина : 704 пикселя
    Высота : 400 пикселей
    Соотношение сторон : 16:9
    Частота кадров : 25,000 кадров/сек
    Цветовое пространство : YUV
    Субдискретизация насыщенности : 4:2:0
    Битовая глубина : 8 бит
    Тип развёртки : Прогрессивная
    Метод сжатия : С потерями
    Бит/(Пиксели*Кадры) : 0.283
    Размер потока : 1,32 Гбайт (91%)
    Библиотека кодирования : XviD 73
    Аудио
    Идентификатор : 1
    Формат : AC-3
    Формат/Информация : Audio Coding 3
    Расширение режима : CM (complete main)
    Параметр Endianness формата : Big
    Идентификатор кодека : 2000
    Продолжительность : 1 ч. 34 м.
    Вид битрейта : Постоянный
    Битрейт : 192 Кбит/сек
    Каналы : 2 канала
    Расположение каналов : Front: L R
    Частота : 48,0 КГц
    Частота кадров : 31,250 кадров/сек (1536 spf)
    Метод сжатия : С потерями
    Размер потока : 130 Мбайт (9%)
    Выравнивание : Разделение по промежуткам
    Продолжительность промежутка : 40 мс. (1,00 видеокадр)
    Время предзагрузки промежутка : 500 мс.

    Скриншот c названием фильма

    Скриншоты

    Сравнение

    http://perectracker.org/viewtopic.php?t=4546887 (реклама, анонсы, перекроп по ширине, блочность, хардсабы)
    http://screenshotcomparison.com/comparison/160930
    Скачать .torrent

    Скачать торрент-файл бесплатно и на максимальной скорости!

    Как скачивать? · Что такое торрент? · Рейтинг и ограничения

    !ВНИМАНИЕ!
    Сайт не распространяет и не хранит электронные версии произведений, а занимается лишь лишь предоставлением доступа к создаваемому пользователями каталогу ссылок на торрент-файлы, которые содержат только списки хеш-сумм, убедительная просьба с жалобами обращаться напрямую к пользователю. Файлы для обмена на трекере предоставлены пользователями сайта, и администрация не несёт ответственности за их содержание. Просьба не заливать файлы, защищенные авторскими правами, а также файлы нелегального содержания!


    _________________
    [Профиль] [ЛС]
    Показать сообщения:    
    Ответить на тему

    Текущее время: Сегодня, в 20:05

    Часовой пояс: GMT + 2



    Вы не можете начинать темы
    Вы не можете отвечать на сообщения
    Вы не можете редактировать свои сообщения
    Вы не можете удалять свои сообщения
    Вы не можете голосовать в опросах
    Вы не можете прикреплять файлы к сообщениям
    Вы не можете скачивать файлы