BitTorrentTracker PerecTracker.org
BitTorrentTracker PerecTracker.org
    
Регистрация  ·  Вход
 
 · 
Забыли пароль?

  • Проект 12: Бункер / Project 12: The Bunker (Джейми Фалеро / Jaime Falero) [2016, Испания, фантастика, боевик, триллер, приключения, DVDRip] VO (Васька Куролесов)

    Ответить на тему
     
    Автор Сообщение

    Light

    Создавать темы 07-Фев-2016 12:03

           

    [Цитировать]

    Проект 12: Бункер / Project 12: The Bunker
    Страна: Испания
    Жанр: фантастика, боевик, триллер, приключения
    Год выпуска: 2016
    Продолжительность: 01:37:08
    Перевод: Одноголосый закадровый Васька Куролесов по субтитрам Энигма
    Cубтитры: нет
    Оригинальная аудиодорожка: нет
    Режиссер: Джейми Фалеро / Jaime Falero
    В ролях: Джеймс Космо, Хоакин Санчез, Наташа Алам, Эрик Робертс, Тимоти Гиббс, Тони Корвильо, Джеймс Коннер Фергюсон, Хосе Луис Де Мадарьяга
    Описание: В начале семидесятых годов в самый разгар Холодной войны Советский Союз вёл инновационные разработки разрушительного оружия, способного в один миг прекратить войну и изменить ход человеческой истории. Для работ над Проектом 12 были привлечены лучшие умы Союза, трудившиеся сутки напролёт над непобедимой машиной - армией солдат с невероятными способностями, которых не берут ни пули, ни время. В итоге руководство сочло Проект 12 слишком опасным и закрыло его, приказав убить всех участвовавших в разработке учёных, чтобы сохранить секрет от мира. Троим удалось сбежать из под огня и скрыться, а Проект 12 был захоронен в особо охраняемом подземном бункере, заброшенном в пустыне много лет назад.
    Семпл
    Качество видео: DVDRip
    Формат видео: AVI
    Видео: XviD, 1806 Кбит/с, 720x304, 23.976 fps
    Аудио: AC-3, 2 ch, 192 Кбит/с, 48.0 KHz
    Релиз:

    MediaInfo

    General
    Complete name : G:\Project 12 The Bunker_KypoJIecoB.avi
    Format : AVI
    Format/Info : Audio Video Interleave
    File size : 1.36 GiB
    Duration : 1h 37mn
    Overall bit rate : 2 007 Kbps
    Video
    ID : 0
    Format : MPEG-4 Visual
    Format profile : Advanced Simple@L5
    Format settings, BVOP : 2
    Format settings, QPel : No
    Format settings, GMC : No warppoints
    Format settings, Matrix : Default (H.263)
    Codec ID : XVID
    Codec ID/Hint : XviD
    Duration : 1h 37mn
    Bit rate : 1 806 Kbps
    Width : 720 pixels
    Height : 304 pixels
    Display aspect ratio : 2.35:1
    Frame rate : 23.976 fps
    Color space : YUV
    Chroma subsampling : 4:2:0
    Bit depth : 8 bits
    Scan type : Progressive
    Compression mode : Lossy
    Bits/(Pixel*Frame) : 0.344
    Stream size : 1.23 GiB (90%)
    Writing library : XviD 67
    Audio
    ID : 1
    Format : AC-3
    Format/Info : Audio Coding 3
    Mode extension : CM (complete main)
    Format settings, Endianness : Big
    Codec ID : 2000
    Duration : 1h 37mn
    Bit rate mode : Constant
    Bit rate : 192 Kbps
    Channel(s) : 2 channels
    Channel positions : Front: L R
    Sampling rate : 48.0 KHz
    Compression mode : Lossy
    Stream size : 133 MiB (10%)
    Alignment : Split accross interleaves
    Interleave, duration : 42 ms (1.00 video frame)
    Interleave, preload duratio : 500 ms

    Скриншот c названием фильма

    Скриншоты

    Скачать .torrent

    Скачать торрент-файл бесплатно и на максимальной скорости!

    Как скачивать? · Что такое торрент? · Рейтинг и ограничения

    !ВНИМАНИЕ!
    Сайт не распространяет и не хранит электронные версии произведений, а занимается лишь лишь предоставлением доступа к создаваемому пользователями каталогу ссылок на торрент-файлы, которые содержат только списки хеш-сумм, убедительная просьба с жалобами обращаться напрямую к пользователю. Файлы для обмена на трекере предоставлены пользователями сайта, и администрация не несёт ответственности за их содержание. Просьба не заливать файлы, защищенные авторскими правами, а также файлы нелегального содержания!


    _________________
    [Профиль] [ЛС]
    Показать сообщения:    
    Ответить на тему

    Текущее время: Сегодня, в 19:26

    Часовой пояс: GMT + 2



    Вы не можете начинать темы
    Вы не можете отвечать на сообщения
    Вы не можете редактировать свои сообщения
    Вы не можете удалять свои сообщения
    Вы не можете голосовать в опросах
    Вы не можете прикреплять файлы к сообщениям
    Вы не можете скачивать файлы