BitTorrentTracker PerecTracker.org
BitTorrentTracker PerecTracker.org
    
Регистрация  ·  Вход
 
 · 
Забыли пароль?

  • Дочь Нептуна / Neptune's Daughter (Эдвард Баззел / Edward Buzzell) [1949, США, мелодрама, комедия, мюзикл, DVDRip] DVO (Светла) + Original (ENG)

    Ответить на тему
     
    Автор Сообщение

    Columb

    Создавать темы 29-Дек-2013 19:33

           

    [Цитировать]

    Дочь Нептуна / Neptune's Daughter
    Страна: США
    Жанр: мелодрама, комедия, мюзикл
    Год выпуска: 1949
    Продолжительность: 01:33:05-Перевод: профессиональный (двухголосый закадровый) - "Светла"
    Cубтитры: нет
    Оригинальная аудиодорожка: английская-Режиссер: Эдвард Баззел / Edward Buzzell-В ролях: Эстер Уильямс, Ред Скелтон, Рикардо Монтальбан, Бетти Гаррет, Кинен Уинн, Ксавьер Кугат, Тед де Корсия, Майк Мазурки, Мэл Бланк, Джордж Манн-Описание: Легкомысленная Бетти Барретт принимает массажиста Джека Спратта за капитана южноамериканской команды по игре в поло Хосе О`Рорка. Спратт не прочь поразвлечься с красоткой, он быстро соглашается со своей ролью популярного спортсмена. Но простой невинный флирт переходит в серьезное чувство — они влюбляются. Тем временем старшая сестра Бетти — Ив, известная пловчиха и дизайнер модных купальников, боится, что сердце Бетти будет разбито, когда она узнает, что Джек не тот, за кого себя выдает. Ради счастьясестры Ив договаривается о встрече с Хосе О`Рорком...-Сэмпл: http://rusfolder.com/39338210
    Качество видео: DVDRip
    Формат видео: AVI
    Видео: 512x384 (1.33:1), 23.976 fps, XviD build 65 ~927 kbps avg, 0.20 bit/pixel
    Аудио 1: 48 kHz, MPEG Layer 3, 2 ch, ~112.00 kbps avg (русский профессиональный двухголосый перевод) - Светла
    Аудио 2: 48 kHz, MPEG Layer 3, 1 ch, ~112.00 kbps avg (английская оригинальная звуковая дорожка, лежит отдельно)

    MediaInfo

    AVI-файл:
    General
    Complete name : ... \Neptune's Daughter 1949 700MB\Neptune's Daughter 1949.avi
    Format : AVI
    Format/Info : Audio Video Interleave
    File size : 699 MiB
    Duration : 1h 33mn
    Overall bit rate : 1 049 Kbps
    Writing application : VirtualDubMod 1.5.10.3 | www.virtualdub-fr.org || (build 2550/release)
    Writing library : VirtualDubMod build 2550/release
    Video
    ID : 0
    Format : MPEG-4 Visual
    Format profile : Advanced Simple@L5
    Format settings, BVOP : 2
    Format settings, QPel : No
    Format settings, GMC : No warppoints
    Format settings, Matrix : Default (H.263)
    Codec ID : DX50
    Codec ID/Hint : DivX 5
    Duration : 1h 33mn
    Bit rate : 928 Kbps
    Width : 512 pixels
    Height : 384 pixels
    Display aspect ratio : 4:3
    Frame rate : 23.976 fps
    Color space : YUV
    Chroma subsampling : 4:2:0
    Bit depth : 8 bits
    Scan type : Progressive
    Compression mode : Lossy
    Bits/(Pixel*Frame) : 0.197
    Stream size : 618 MiB (88%)
    Writing library : XviD 65
    Audio
    ID : 1
    Format : MPEG Audio
    Format version : Version 1
    Format profile : Layer 3
    Codec ID : 55
    Codec ID/Hint : MP3
    Duration : 1h 33mn
    Bit rate mode : Constant
    Bit rate : 112 Kbps
    Channel(s) : 2 channels
    Sampling rate : 48.0 KHz
    Compression mode : Lossy
    Stream size : 74.6 MiB (11%)
    Alignment : Aligned on interleaves
    Interleave, duration : 42 ms (1.00 video frame)
    Interleave, preload duration : 504 ms
    Writing library : LAME3.99r
    Encoding settings : -m s -V 4 -q 2 -lowpass 15.6 -b 112
    английская оригинальная дорожка, лежит отдельно:
    General
    Complete name : ... \Neptune's Daughter 1949 700MB\Neptune's Daughter 1949.ENG.mp3
    Format : MPEG Audio
    File size : 74.6 MiB
    Duration : 1h 33mn
    Overall bit rate mode : Constant
    Overall bit rate : 112 Kbps
    Writing library : LAME3.99r
    Audio
    Format : MPEG Audio
    Format version : Version 1
    Format profile : Layer 3
    Duration : 1h 33mn
    Bit rate mode : Constant
    Bit rate : 112 Kbps
    Channel(s) : 1 channel
    Sampling rate : 48.0 KHz
    Compression mode : Lossy
    Stream size : 74.6 MiB (100%)
    Writing library : LAME3.99r
    Encoding settings : -m m -V 4 -q 2 -lowpass 20.5 -b 112

    Скриншоты

    Скачать .torrent

    Скачать торрент-файл бесплатно и на максимальной скорости!

    Как скачивать? · Что такое торрент? · Рейтинг и ограничения

    !ВНИМАНИЕ!
    Сайт не распространяет и не хранит электронные версии произведений, а занимается лишь лишь предоставлением доступа к создаваемому пользователями каталогу ссылок на торрент-файлы, которые содержат только списки хеш-сумм, убедительная просьба с жалобами обращаться напрямую к пользователю. Файлы для обмена на трекере предоставлены пользователями сайта, и администрация не несёт ответственности за их содержание. Просьба не заливать файлы, защищенные авторскими правами, а также файлы нелегального содержания!

    [Профиль] [ЛС]
    Показать сообщения:    
    Ответить на тему

    Текущее время: Сегодня, в 16:16

    Часовой пояс: GMT + 2



    Вы не можете начинать темы
    Вы не можете отвечать на сообщения
    Вы не можете редактировать свои сообщения
    Вы не можете удалять свои сообщения
    Вы не можете голосовать в опросах
    Вы не можете прикреплять файлы к сообщениям
    Вы не можете скачивать файлы