BitTorrentTracker PerecTracker.org
BitTorrentTracker PerecTracker.org
    
Регистрация  ·  Вход
 
 · 
Забыли пароль?

  • Антиганг / Antigang (Бенжамен Роше / S. Benjamin Rocher) [2015, Франция, Боевик, Драма, HDRip-AVC] Dub (Line)

    Ответить на тему
     
    Автор Сообщение

    rechyn

    Создавать темы 07-Фев-2016 03:50

           

    [Цитировать]

    -Антиганг / Antigang--Страна: Великобритания, Франция
    Жанр: Боевик, Драма
    Год выпуска: 2015
    Продолжительность: 01:32:43-Перевод: Профессиональный (дублированный) Line-Cубтитры: нет
    Оригинальная аудиодорожка: нет-Режиссер: Бенжамен Роше / S. Benjamin Rocher-В ролях: Жан Рено, Элбан Ленуар, Катерина Мурино, Умар Диау, Стефи Сельма, Себастьен ЛаЛэйнн, Тьерри Нёвик, Жан-Туссен Бернард, Якоб Седергрен, Джесс Лиодин, Стивен Скардиккьо-Описание: Серж Бюрен - легендарный полицейский, возглавляющий группу молодых приспешников с нетипичным подходом. И неважно, используют ли они бейсбольные биты или напрочь забывают об уставе во время показательных арестов, результат налицо. В то же время группировка смертоносных грабителей с легкостью обчищает столичные банки и ювелирные магазины. Бюрен и его подразделение попадают в непростую ситуацию: окажутся ли привычные им методы быстрого реагирования достаточными, для того чтобы остановить преступников?---Качество видео: HDRip-AVC
    Формат видео: MKV-Видео: MPEG-4 AVC, 1016x424 (2.40:1), 24.000 fps, ~1800 kbps avg, 0.173 bit/pixel
    Аудио: 48 kHz, AC3 Dolby Digital, 2/0 (L,R) ch, ~384 kbps avg-

    MediaInfo

    Complete name : C:\Users\1\Desktop\Antigang (2015) HDRip-AVC.mkv
    Format : Matroska
    Format version : Version 2
    File size : 1.41 GiB
    Duration : 1h 32mn
    Overall bit rate : 2 176 Kbps
    Movie name : Antigang (2015) HDRip-AVC
    Encoded date : UTC 2016-02-06 18:11:20
    Writing application : mkvmerge v3.0.0 ('Hang up your Hang-Ups') built on Dec 12 2009 15:20:35
    Writing library : libebml v0.7.9 + libmatroska v0.8.1
    Cover : Yes
    Attachments : cover.jpg / cover.png
    Video
    ID : 1
    Format : AVC
    Format/Info : Advanced Video Codec
    Format profile : High@L4.1
    Format settings, CABAC : Yes
    Format settings, ReFrames : 12 frames
    Codec ID : V_MPEG4/ISO/AVC
    Duration : 1h 32mn
    Bit rate : 1 792 Kbps
    Width : 1 016 pixels
    Height : 424 pixels
    Display aspect ratio : 2.40:1
    Frame rate mode : Constant
    Frame rate : 24.000 fps
    Color space : YUV
    Chroma subsampling : 4:2:0
    Bit depth : 8 bits
    Scan type : Progressive
    Bits/(Pixel*Frame) : 0.173
    Stream size : 1.13 GiB (80%)
    Writing library : x264 core 148 r2638M 7599210
    Encoding settings : cabac=1 / ref=12 / deblock=1:-3:-3 / analyse=0x3:0x133 / me=umh / subme=11 / psy=1 / psy_rd=1.00:0.10 / mixed_ref=1 / me_range=32 / chroma_me=1 / trellis=2 / 8x8dct=1 / cqm=0 / deadzone=21,11 / fast_pskip=0 / chroma_qp_offset=-3 / threads=5 / lookahead_threads=1 / sliced_threads=0 / nr=0 / decimate=1 / interlaced=0 / bluray_compat=0 / constrained_intra=0 / bframes=11 / b_pyramid=2 / b_adapt=2 / b_bias=0 / direct=3 / weightb=1 / open_gop=0 / weightp=2 / keyint=240 / keyint_min=24 / scenecut=40 / intra_refresh=0 / rc=2pass / mbtree=0 / bitrate=1792 / ratetol=1.0 / qcomp=0.60 / qpmin=0 / qpmax=69 / qpstep=4 / cplxblur=20.0 / qblur=0.5 / ip_ratio=1.40 / pb_ratio=1.30 / aq=1:1.00
    Language : English
    Default : No
    Forced : No
    Color range : Limited
    Color primaries : BT.709
    Transfer characteristics : BT.709
    Matrix coefficients : BT.709
    Audio
    ID : 2
    Format : AC-3
    Format/Info : Audio Coding 3
    Mode extension : CM (complete main)
    Format settings, Endianness : Big
    Codec ID : A_AC3
    Duration : 1h 32mn
    Bit rate mode : Constant
    Bit rate : 384 Kbps
    Channel(s) : 2 channels
    Channel positions : Front: L R
    Sampling rate : 48.0 KHz
    Frame rate : 31.250 fps (1536 spf)
    Compression mode : Lossy
    Stream size : 255 MiB (18%)
    Title : Line
    Language : Russian
    Default : Yes
    Forced : No

    Скриншот c названием фильма

    Скриншоты

    Скачать .torrent

    Скачать торрент-файл бесплатно и на максимальной скорости!

    Как скачивать? · Что такое торрент? · Рейтинг и ограничения

    !ВНИМАНИЕ!
    Сайт не распространяет и не хранит электронные версии произведений, а занимается лишь лишь предоставлением доступа к создаваемому пользователями каталогу ссылок на торрент-файлы, которые содержат только списки хеш-сумм, убедительная просьба с жалобами обращаться напрямую к пользователю. Файлы для обмена на трекере предоставлены пользователями сайта, и администрация не несёт ответственности за их содержание. Просьба не заливать файлы, защищенные авторскими правами, а также файлы нелегального содержания!


    _________________
    [Профиль] [ЛС]
    Показать сообщения:    
    Ответить на тему

    Текущее время: Сегодня, в 20:24

    Часовой пояс: GMT + 2



    Вы не можете начинать темы
    Вы не можете отвечать на сообщения
    Вы не можете редактировать свои сообщения
    Вы не можете удалять свои сообщения
    Вы не можете голосовать в опросах
    Вы не можете прикреплять файлы к сообщениям
    Вы не можете скачивать файлы