BitTorrentTracker PerecTracker.org
BitTorrentTracker PerecTracker.org
    
Регистрация  ·  Вход
 
 · 
Забыли пароль?

  • Невероятные приключения Билла и Теда / Bill & Ted\'s Excellent Adventure (Стивен Херек) [1989, США, фантастика, комедия, приключения, BDRip HD (720p), SD (480p)] DVO, MVO, AVO, Original + SUB (rus, eng, fra, spa)

    Ответить на тему
     
    Автор Сообщение

    Flirldrerve

    Создавать темы 06-Фев-2016 19:26

           

    [Цитировать]

    Невероятные приключения Билла и Теда / Bill & Ted's Excellent Adventure
    "The funniest comedy in the history of history"
    6.611 / 10
    -Год выпуска: 1989
    Страна: США
    Жанр: фантастика, комедия, приключения
    Продолжительность: 90 мин.
    Перевод: Многоголосый закадровый перевод, двухголосый закадровый перевод и одноголосый закадровый авторский перевод
    Оригинальная аудиодорожка: Есть
    Cубтитры: Русские полные, английские полные SDH, французские полные и испанские полные
    Режиссёр: Стивен Херек
    Сценарий: Крис Мэтисон, Эд Соломон
    Продюсер: Скотт Крупф, Майкл С. Мёрфи, Джоэль Сойзон
    Оператор: Тим Зурштедт
    Композитор: Дэвид Ньюман
    Художник: Рой Форж Смит, Гордон Уайт, Джилл М. Оханнесон
    Монтаж: Ларри Бок, Патрик Рэнд
    В ролях: Киану Ривз, Алекс Уинтер, Джордж Карлин, Терри Камиллери, Дэн Шор, Тони Стидман, Род Лумис, Аль Леонг, Джейн Уидлин, Роберт В. Баррон
    Бюджет: $10 000 000
    Сборы в США: $40 485 039
    Мировая премьера: 17 февраля 1989
    Описание: Калифорнийские школьники Билл и Тед узнают, что им не сдать экзамен по истории, если они не сделают доклад на тему "Современный мир глазами выдающейся исторической личности".
    Судьба сводит их с представителем будущего - Руфусом, путешествующим на машине времени в виде телефонной будки. С ее помощью Билл и Тед не только перемещаются в прошлое, но и переносят оттуда множество исторических личностей.-Качество исходника: BD-Remux 1080p
    Качество: BDRip
    Тип: 480p 720p
    Контейнер: m4v
    Видео: 640x368 анаморф 852x368 at 23.976 fps, MPEG-4 AVC, ~1700 kbps avg
    Видео: 1280x544 at 23.976 fps, MPEG-4 AVC, ~5000 kbps avg
    Аудио#1: Russian: 48 kHz, ААС, 2/0 (L,R), ~128.00 / 192.00 kbps avg |Двухголосый закадровый|
    Аудио#2: Russian: 48 kHz, ААС, 2/0 (L,R), ~128.00 / 192.00 kbps avg |Многоголосый закадровый, ТК "Интер|
    Аудио#3: Russian: 48 kHz, ААС, 2/0 (L,R), ~128.00 / 192.00 kbps avg |Одноголосый закадровый, В. Королев|
    Аудио#4: Russian: 48 kHz, ААС, 2/0 (L,R), ~128.00 / 192.00 kbps avg |Одноголосый закадровый, Студия "Мега"|
    Аудио#5: English: 48 kHz, ААС, 2/0 (L,R), ~128.00 / 192.00 kbps avg
    Аудио#6: Russian: 48 kHz, AC3, 3/2 (L,C,R,l,r) + LFE ch, ~448.00 kbps avg |Двухголосый закадровый|
    Аудио#7: Russian: 48 kHz, AC3, 3/2 (L,C,R,l,r) + LFE ch, ~448.00 kbps avg |Одноголосый закадровый, В. Королев|
    Аудио#8: English: 48 kHz, AC3, 3/2 (L,C,R,l,r) + LFE ch, ~640.00 kbps avg
    Субтитры №1: Russian: |Полные|
    Субтитры №2: English: |Полные|
    Субтитры №3: French: |Полные|
    Субтитры №4: Spanish: |Полные|-

    Знаете ли Вы, что...

    • Телефонный номер, который набирает Руфус, чтобы попасть в Австрию 1805 года — 1-323-459-4303.
    • Телефонная будка, использованная при съемках фильма, стала главным призом викторины, проводимой журналом о видеоиграх Nintendo Power Magazine. Её выиграл обыкновенный мальчишка из американского штата Миссисипи.
    • В одной из сцен фильма Билл и Тед говорят, что их рок-группе, чтобы лучше играть, нужен Эдвард Ван Хален. После того как фильм вышел в прокат в одном из интервью известный музыкант в шутку сказал, что присоединился бы к их группе, если бы герои его, действительно, попросили.
    • Сцены в школе и рядом с ней были сняты в школе Coronado High School в Скоттсдэйле, штат Аризона. В 2005-2007 годах школа бы подвергнута серьёзной реконструкции, и аудитория, в которой Билл и Тед делали свой знаменитый доклад по истории, была полностью снесена. Однако необыкновенно изящная мозаика, которую можно заметить снаружи аудитории, была сохранена и перенесена по частям в другую аудиторию школы.
    • Первоначально Алекс Винтер пробовался на роль Теда, а Киану Ривз на роль Билла.
    • Сам Руфус ни разу не называет своего имени — Билл и Тед представляют его самим себе.
    • Кадры военной кампании Наполеона в Австрии в 1805 году (битва при Аустерлице) позаимствованы из картины «Война и Мир» (1956).
    • Сцена спасения Билла и Теда в средневековой Англии, когда их товарищи переодеваются палачами, практически в точности соответствует аналогичной сцене спасения д’Артаньяна из «Трёх мушкетёров» (1993), режиссёром которых был также Стивен Херек.
    • Блюдо с мороженым «Свинка Зигги» в ресторане, которое съедает Наполеон, это отсылка к одноимённому персонажу комиксов Timely Comics (позднее Marvel Comics), выходивших во время Второй мировой войны. Ко времени выхода фильма сам персонаж и его изображение, значок с которым прикрепляют на грудь Наполеону, стали общественным достоянием в США.
    • Когда Билл читает задание по истории Теду, он говорит «Расскажите классу как выдающиеся деятели разных периодов истории увидели бы мир Сан-Димаса, 1988 года». На самом деле по губам Киану Ривза можно прочитать, что он говорит 1987, а не 1988. Это связано с многочисленными задержками с выходом в прокат, в связи с чем этот момент фильма и некоторые другие были дополнительно дублированы значительно позднее, незадолго перед премьерой.
    • В первоначальном сценарии машиной времени был автомобиль Chevy Van 1969 года выпуска, но создатели фильма посчитали, что это будет слишком напоминать ставшую кассовым хитом картину «Назад в будущее» и переделали её на телефонную будку 60-х годов. Также, когда машина времени была автомобилем, Билл и Тед подбирали больше исторических персонажей, чем в финальной версии фильма. Среди них были король франков Карл Великий и знаменитый американский бейсболист Бэйб Рут.
    • По первоначальному варианту сценария Билл и Тед делали свой доклад в обычном школьном классе, а исторические деятели для изображения своих впечатлений использовали классную доску.
    • Съёмки «Невероятных приключений Билла и Теда» прошли с 9 февраля по май 1987 года в американских штатах Аризона и Калифорния (город Сан-Димас), а премьера была запланирована на осень того же, 1987 года. Однако из-за банкротства дистрибьютора De Laurentis Entertainment Group релиз фильма был отложен более чем на год. В конечном счёте, права были куплены киностудией Orion Pictures совместно с компанией Nelson Entertainment, и фильм вышел в прокат 19 февраля 1989 года.
    • Когда Наполеон заканчивает свою «презентацию» водяных горок аквапарка «Ватерлоо», Тед поднимает голову и бросает фразу «Не думаю, что это сработает». Если хорошо присмотреться к картам, нарисованным Наполеоном, то можно увидеть, что на самом деле он изображает план французского вторжения в Россию, которое, как известно, завершилось для него полной катастрофой.
    • В течение фильма Билл несколько раз называет себя по полному имени Билл С. Престон, Эсквайр. На самом деле эсквайр это почётное звание, которое в США означает практикующего адвоката.
    • Игру на гитаре Руфуса (Джордж Карлин) вместо актёра в финальной сцене фильма исполнил известный гитарист Стиви Салас. Именно его пальцы появляются на экране и так искусно управляются с инструментом.

    из книги «3500 кинорецензий»


    Молодёжная фантастическая комедия (Сергей Кудрявцев 5.0/10)
    Несмотря на то, что американский критик Леонард Молтин назвал этот фильм «дурацкой комедией, которой не суждено взлететь на подобающую высоту», лента 30-летнего Стивена Херека вчетверо превзошла в прокате США свой десятимиллионный бюджет, была продолжена в анимационном и игровом телесериалах, а через два года — в ещё более успешной в коммерческом отношении второй серии. Бывший режиссёр «Зубастиков» верно сообразил, что весомых результатов можно добиться не в фантастической комедии ужасов, а при помощи сто раз испытанного сюжета о машине времени, который был приспособлен к сегодняшней американской реальности и с учётом интересов основных посетителей кинотеатров — подростков, в частности, учеников колледжей.
    Типичная «школьная комедия» о безумных проделках ленивых и невоспитанных оболтусов снабжена фантастическим антуражем и уже непременными для такого кино визуальными эффектами. Поскольку великовозрастные шалопаи Билл и Тед получили возможность перед будущим экзаменом по истории отправиться в прошлое и не только лично познакомиться со знаменитыми личностями — Сократом, Наполеоном, Чингисханом, но и перенести их с собой в настоящее.
    Видимо, проблема сдачи экзаменов прогульщиками уроков всё еще волнует подростков сильнее, чем, допустим, сексуальные опыты, так как картина Херека намного превзошла показатели тоже фантастической комедии «Ох, уж эта наука!» Джона Хьюза, певца «американских недорослей», сравнялась в итоге с «Клубом «Завтрак» и стремилась достичь доходов «Выходного дня Ферриса Бюллера» (обе ленты того же Хьюза — именно о приключениях учеников колледжей вне уроков). Но при всём желании экранным упражнениям Стивена Херека можно поставить оценку «пять» только по десятибалльной системе. Позже принцип «исторического галопа» пригодился ему в школярски безграмотной экранизации «Трёх мушкетёров» Александра Дюма.
    1993

    -

    iTunes Meta Tags for country us

    Name: Bill & Ted's Excellent Adventure
    Artist: Stephen Herek
    Genre: Comedy
    Release Date: 1989-02-17T08:00:00Z
    Description: Калифорнийские школьники Билл и Тед узнают, что им не сдать экзамен по истории, если они не сделают доклад на тему "Современный мир глазами выдающейся исторической личности".
    Судьба сводит их с представителем будущего - Руфусом, путешествующим на машине времени в виде телефонной будки...
    Long Description: Калифорнийские школьники Билл и Тед узнают, что им не сдать экзамен по истории, если они не сделают доклад на тему "Современный мир глазами выдающейся исторической личности".
    Судьба сводит их с представителем будущего - Руфусом, путешествующим на машине времени в виде телефонной будки. С ее помощью Билл и Тед не только перемещаются в прошлое, но и переносят оттуда множество исторических личностей.
    Rating: PG
    Studio: MGM
    Cast: Киану Ривз, Алекс Уинтер, Джордж Карлин, Терри Камиллери, Дэн Шор, Тони Стидман, Род Лумис, Аль Леонг, Джейн Уидлин, Роберт В. Баррон
    Director: Стивен Херек
    Producers: Скотт Крупф, Майкл С. Мёрфи, Джоэль Сойзон
    Screenwriters: Крис Мэтисон, Эд Соломон
    Copyright: © 1989 ORION PICTURES CORPORATION
    contentID: 309099454
    XID: Apple:vendor_id:1989-3809
    Sort Name: Bill & Ted's Excellent Adventure

    MediaInfo 480p Release

    Общее
    Полное имя : Bill & Ted's Excellent Adventure.m4v
    Формат : MPEG-4
    Идентификатор кодека : M4V  (M4V /M4A /mp42/isom)
    Размер файла : 1,46 Гбайт
    Продолжительность : 1 ч. 29 м.
    Режим общего битрейта : Переменный
    Общий поток : 2321 Кбит/сек
    Название фильма : Bill & Ted's Excellent Adventure
    Исполнитель : Stephen Herek
    Режиссёр : Стивен Херек
    Исполнитель : Киану Ривз / Алекс Уинтер / Джордж Карлин / Терри Камиллери / Дэн Шор / Тони Стидман / Род Лумис / Аль Леонг / Джейн Уидлин / Роберт В. Баррон
    Сценарист : Крис Мэтисон / Эд Соломон
    Продюсер : Скотт Крупф / Майкл С. Мёрфи / Джоэль Сойзон
    Студия-производитель : MGM
    Жанр : Comedy
    Тип содержимого : Short Film
    Описание : Калифорнийские школьники Билл и Тед узнают, что им не сдать экзамен по истории, если они не сделают доклад на тему "Современный мир глазами выдающейся исторической личности". / Судьба сводит их с представителем будущего - Руфусом, путешествующим на машине времени в виде телефонной будки...
    Дата записи : UTC 1989-02-17 08:00:00
    Дата кодирования : UTC 2016-02-05 13:10:40
    Дата пометки : UTC 2016-02-05 14:41:50
    Авторское право : © 1989 ORION PICTURES CORPORATION
    Обложка : Yes
    Оценка : None
    Title/Sort : Bill & Ted's Excellent Adventure
    LongDescription : Калифорнийские школьники Билл и Тед узнают, что им не сдать экзамен по истории, если они не сделают доклад на тему "Современный мир глазами выдающейся исторической личности". / Судьба сводит их с представителем будущего - Руфусом, путешествующим на машине времени в виде телефонной будки. С ее помощью Билл и Тед не только перемещаются в прошлое, но и переносят оттуда множество исторических личностей.
    AppleStoreCatalogID : 309099454
    Vendor : Apple:vendor_id:1989-3809
    ContentRating : mpaa|PG|200|
    Видео #1
    Идентификатор : 1
    Формат : AVC
    Формат/Информация : Advanced Video Codec
    Профиль формата : Baseline@L3
    Параметр CABAC формата : Нет
    Параметр ReFrames формата : 2 кадра
    Идентификатор кодека : avc1
    Идентификатор кодека/Информация : Advanced Video Coding
    Продолжительность : 1 ч. 29 м.
    Битрейт : 1700 Кбит/сек
    Ширина : 640 пикселей
    Высота : 368 пикселей
    Соотношение сторон : 2,35:1
    Режим частоты кадров : Переменный
    Частота кадров : 23,976 кадра/сек
    Минимальная частота кадров : 11,989 кадров/сек
    Максимальная частота кадров : 23,981 кадра/сек
    Цветовое пространство : YUV
    Субдискретизация насыщенности : 4:2:0
    Битовая глубина : 8 бит
    Тип развёртки : Прогрессивная
    Бит/(Пиксели*Кадры) : 0.301
    Размер потока : 1,07 Гбайт (73%)
    Заголовок : Main Program
    Библиотека кодирования : x264 core 130 r2273 b3065e6
    Настройки программы : cabac=0 / ref=2 / deblock=1:0:0 / analyse=0x1:0x111 / me=umh / subme=6 / psy=1 / psy_rd=1.00:0.00 / mixed_ref=1 / me_range=16 / chroma_me=1 / trellis=0 / 8x8dct=0 / cqm=0 / deadzone=21,11 / fast_pskip=1 / chroma_qp_offset=-2 / threads=18 / lookahead_threads=2 / sliced_threads=0 / nr=0 / decimate=1 / interlaced=0 / bluray_compat=0 / constrained_intra=0 / bframes=0 / weightp=0 / keyint=240 / keyint_min=24 / scenecut=40 / intra_refresh=0 / rc_lookahead=40 / rc=2pass / mbtree=1 / bitrate=1700 / ratetol=1.0 / qcomp=0.60 / qpmin=0 / qpmax=69 / qpstep=4 / cplxblur=20.0 / qblur=0.5 / vbv_maxrate=5000 / vbv_bufsize=5000 / nal_hrd=none / ip_ratio=1.40 / aq=1:1.00
    Язык : English
    Дата кодирования : UTC 2016-02-05 13:10:40
    Дата пометки : UTC 2016-02-05 13:10:43
    Цветовой диапазон : Limited
    Основные цвета : BT.709
    Характеристики трансфера : BT.709
    Коэффициенты матрицы : BT.709
    Menus : 11,12
    Видео #2
    Идентификатор : 12
    Формат : JPEG
    Идентификатор кодека : jpeg
    Продолжительность : 1 ч. 29 м.
    Вид битрейта : Переменный
    Битрейт : 975 бит/сек
    Ширина : 640 пикселей
    Высота : 276 пикселей
    Соотношение сторон : 2,35:1
    Режим частоты кадров : Переменный
    Частота кадров : 0,003 кадр/сек
    Минимальная частота кадров : 0,002 кадр/сек
    Максимальная частота кадров : 0,007 кадр/сек
    Цветовое пространство : YUV
    Субдискретизация насыщенности : 4:2:0
    Битовая глубина : 8 бит
    Метод сжатия : С потерями
    Бит/(Пиксели*Кадры) : 1.840
    Размер потока : 635 Кбайт (0%)
    Заголовок : Chapter Images
    Язык : English
    Default : Нет
    Дата кодирования : UTC 2016-02-05 14:40:29
    Дата пометки : UTC 2016-02-05 14:40:30
    Menu For : 1
    Аудио #1
    Идентификатор : 2
    Формат : AAC
    Формат/Информация : Advanced Audio Codec
    Профиль формата : LC
    Идентификатор кодека : 40
    Продолжительность : 1 ч. 29 м.
    Вид битрейта : Переменный
    Битрейт : 132 Кбит/сек
    Максимальный битрейт : 195 Кбит/сек
    Каналы : 2 канала
    Расположение каналов : Front: L R
    Частота : 48,0 КГц
    Частота кадров : 46,875 кадров/сек (1024 spf)
    Метод сжатия : С потерями
    Размер потока : 84,5 Мбайт (6%)
    Заголовок : Russian DVO Stereo
    Язык : Russian
    Default : Да
    Alternate group : 1
    Дата кодирования : UTC 2016-02-05 13:10:40
    Дата пометки : UTC 2016-02-05 13:10:47
    Menus : 11
    Аудио #2
    Идентификатор : 3
    Формат : AAC
    Формат/Информация : Advanced Audio Codec
    Профиль формата : LC
    Идентификатор кодека : 40
    Продолжительность : 1 ч. 29 м.
    Вид битрейта : Переменный
    Битрейт : 107 Кбит/сек
    Максимальный битрейт : 217 Кбит/сек
    Каналы : 2 канала
    Расположение каналов : Front: L R
    Частота : 48,0 КГц
    Частота кадров : 46,875 кадров/сек (1024 spf)
    Метод сжатия : С потерями
    Размер потока : 69,0 Мбайт (5%)
    Заголовок : Russian MVO TK Inter Stereo
    Язык : Russian
    Default : Нет
    Alternate group : 1
    Дата кодирования : UTC 2016-02-05 13:10:40
    Дата пометки : UTC 2016-02-05 13:10:47
    Аудио #3
    Идентификатор : 4
    Формат : AAC
    Формат/Информация : Advanced Audio Codec
    Профиль формата : LC
    Идентификатор кодека : 40
    Продолжительность : 1 ч. 29 м.
    Вид битрейта : Переменный
    Битрейт : 132 Кбит/сек
    Максимальный битрейт : 226 Кбит/сек
    Каналы : 2 канала
    Расположение каналов : Front: L R
    Частота : 48,0 КГц
    Частота кадров : 46,875 кадров/сек (1024 spf)
    Метод сжатия : С потерями
    Размер потока : 85,4 Мбайт (6%)
    Заголовок : Russian AVO V.Korolev Stereo
    Язык : Russian
    Default : Нет
    Alternate group : 1
    Дата кодирования : UTC 2016-02-05 13:40:17
    Дата пометки : UTC 2016-02-05 13:40:21
    Аудио #4
    Идентификатор : 5
    Формат : AAC
    Формат/Информация : Advanced Audio Codec
    Профиль формата : LC
    Идентификатор кодека : 40
    Продолжительность : 1 ч. 29 м.
    Вид битрейта : Переменный
    Битрейт : 105 Кбит/сек
    Максимальный битрейт : 205 Кбит/сек
    Каналы : 2 канала
    Расположение каналов : Front: L R
    Частота : 48,0 КГц
    Частота кадров : 46,875 кадров/сек (1024 spf)
    Метод сжатия : С потерями
    Размер потока : 67,8 Мбайт (5%)
    Заголовок : Russian AVO studiya Mega Stereo
    Язык : Russian
    Default : Нет
    Alternate group : 1
    Дата кодирования : UTC 2016-02-05 13:40:17
    Дата пометки : UTC 2016-02-05 13:40:21
    Аудио #5
    Идентификатор : 6
    Формат : AAC
    Формат/Информация : Advanced Audio Codec
    Профиль формата : LC
    Идентификатор кодека : 40
    Продолжительность : 1 ч. 29 м.
    Вид битрейта : Переменный
    Битрейт : 132 Кбит/сек
    Максимальный битрейт : 224 Кбит/сек
    Каналы : 2 канала
    Расположение каналов : Front: L R
    Частота : 48,0 КГц
    Частота кадров : 46,875 кадров/сек (1024 spf)
    Метод сжатия : С потерями
    Размер потока : 84,9 Мбайт (6%)
    Заголовок : English Stereo
    Язык : English
    Default : Нет
    Alternate group : 1
    Дата кодирования : UTC 2016-02-05 13:53:51
    Дата пометки : UTC 2016-02-05 13:53:55
    Текст #1
    Идентификатор : 7
    Формат : Timed Text
    Режим смешивания : sbtl
    Идентификатор кодека : tx3g
    Продолжительность : 1 ч. 25 м.
    Вид битрейта : Переменный
    Битрейт : 75 бит/сек
    Размер потока : 47,4 Кбайт (0%)
    Заголовок : Russian Subtitle
    Язык : Russian
    Default : Да
    Forced : Нет
    Alternate group : 2
    Дата кодирования : UTC 2016-02-05 14:37:32
    Дата пометки : UTC 2016-02-05 14:37:32
    Текст #2
    Идентификатор : 8
    Формат : Timed Text
    Режим смешивания : sbtl
    Идентификатор кодека : tx3g
    Продолжительность : 1 ч. 25 м.
    Вид битрейта : Переменный
    Битрейт : 60 бит/сек
    Размер потока : 37,4 Кбайт (0%)
    Заголовок : English SDH Subtitle
    Язык : English
    Default : Нет
    Forced : Нет
    Alternate group : 2
    Дата кодирования : UTC 2016-02-05 14:37:32
    Дата пометки : UTC 2016-02-05 14:37:32
    Текст #3
    Идентификатор : 9
    Формат : Timed Text
    Режим смешивания : sbtl
    Идентификатор кодека : tx3g
    Продолжительность : 1 ч. 25 м.
    Вид битрейта : Переменный
    Битрейт : 50 бит/сек
    Размер потока : 31,7 Кбайт (0%)
    Заголовок : French Subtitle
    Язык : French
    Default : Нет
    Forced : Нет
    Alternate group : 2
    Дата кодирования : UTC 2016-02-05 14:37:32
    Дата пометки : UTC 2016-02-05 14:37:32
    Текст #4
    Идентификатор : 10
    Формат : Timed Text
    Режим смешивания : sbtl
    Идентификатор кодека : tx3g
    Продолжительность : 1 ч. 25 м.
    Вид битрейта : Переменный
    Битрейт : 54 бит/сек
    Размер потока : 34,0 Кбайт (0%)
    Заголовок : Spanish Subtitle
    Язык : Spanish
    Default : Нет
    Forced : Нет
    Alternate group : 2
    Дата кодирования : UTC 2016-02-05 14:37:32
    Дата пометки : UTC 2016-02-05 14:37:32
    Меню #1
    00:00:00.000 : Main Title/Wyld Stallyns
    00:05:02.033 : History Challenge
    00:09:52.800 : The Future Calls
    00:17:24.800 : Circuits of History
    00:23:56.534 : The Wild West
    00:28:46.801 : Ancient Greece
    00:31:02.502 : Medieval Times
    00:38:56.836 : Two Headless Dudes
    00:41:33.136 : Party On, Dudes
    00:46:13.204 : Gather the Troops
    00:52:34.371 : Patchwork
    00:55:46.005 : San Dimas
    01:01:47.505 : Mall Trouble
    01:07:33.473 : Prison Break
    01:12:58.307 : History World Tour
    01:21:34.074 : Jam Session/Credits
    Меню #2
    Идентификатор : 11
    Идентификатор кодека : text
    Продолжительность : 1 ч. 29 м.
    Заголовок : Chapter Images
    Язык : English
    Дата кодирования : UTC 2016-02-05 14:40:26
    Дата пометки : UTC 2016-02-05 14:40:26
    Menu For : 2,1
    00:00:00.000 : Main Title/Wyld Stallyns
    00:05:02.033 : History Challenge
    00:09:52.800 : The Future Calls
    00:17:24.800 : Circuits of History
    00:23:56.534 : The Wild West
    00:28:46.801 : Ancient Greece
    00:31:02.502 : Medieval Times
    00:38:56.836 : Two Headless Dudes
    00:41:33.136 : Party On, Dudes
    00:46:13.204 : Gather the Troops
    00:52:34.371 : Patchwork
    00:55:46.005 : San Dimas
    01:01:47.505 : Mall Trouble
    01:07:33.473 : Prison Break
    01:12:58.307 : History World Tour
    01:21:34.074 : Jam Session/Credits
    Вид битрейта : VBR

    MediaInfo 720p Release

    Общее
    Полное имя : Bill & Ted's Excellent Adventure (HD).m4v
    Формат : MPEG-4
    Идентификатор кодека : M4V  (M4V /M4A /mp42/isom)
    Размер файла : 4,67 Гбайт
    Продолжительность : 1 ч. 29 м.
    Режим общего битрейта : Переменный
    Общий поток : 7447 Кбит/сек
    Название фильма : Bill & Ted's Excellent Adventure
    Исполнитель : Stephen Herek
    Режиссёр : Стивен Херек
    Исполнитель : Киану Ривз / Алекс Уинтер / Джордж Карлин / Терри Камиллери / Дэн Шор / Тони Стидман / Род Лумис / Аль Леонг / Джейн Уидлин / Роберт В. Баррон
    Сценарист : Крис Мэтисон / Эд Соломон
    Продюсер : Скотт Крупф / Майкл С. Мёрфи / Джоэль Сойзон
    Студия-производитель : MGM
    Жанр : Comedy
    Тип содержимого : Short Film
    Описание : Калифорнийские школьники Билл и Тед узнают, что им не сдать экзамен по истории, если они не сделают доклад на тему "Современный мир глазами выдающейся исторической личности". / Судьба сводит их с представителем будущего - Руфусом, путешествующим на машине времени в виде телефонной будки...
    Дата записи : UTC 1989-02-17 08:00:00
    Дата кодирования : UTC 2016-02-05 13:13:57
    Дата пометки : UTC 2016-02-05 14:41:12
    Авторское право : © 1989 ORION PICTURES CORPORATION
    Обложка : Yes
    Оценка : None
    Title/Sort : Bill & Ted's Excellent Adventure
    LongDescription : Калифорнийские школьники Билл и Тед узнают, что им не сдать экзамен по истории, если они не сделают доклад на тему "Современный мир глазами выдающейся исторической личности". / Судьба сводит их с представителем будущего - Руфусом, путешествующим на машине времени в виде телефонной будки. С ее помощью Билл и Тед не только перемещаются в прошлое, но и переносят оттуда множество исторических личностей.
    HDVideo : Yes
    AppleStoreCatalogID : 309099454
    Vendor : Apple:vendor_id:1989-3809
    ContentRating : mpaa|PG|200|
    Видео #1
    Идентификатор : 1
    Формат : AVC
    Формат/Информация : Advanced Video Codec
    Профиль формата : High@L3.1
    Параметр CABAC формата : Нет
    Параметр ReFrames формата : 3 кадра
    Идентификатор кодека : avc1
    Идентификатор кодека/Информация : Advanced Video Coding
    Продолжительность : 1 ч. 29 м.
    Продолжительность оригинала : 1 ч. 29 м.
    Битрейт : 5000 Кбит/сек
    Ширина : 1280 пикселей
    Высота : 544 пикселя
    Соотношение сторон : 2,35:1
    Режим частоты кадров : Переменный
    Частота кадров : 23,976 (24000/1001) кадра/сек
    Минимальная частота кадров : 23,974 кадра/сек
    Максимальная частота кадров : 23,981 кадра/сек
    Цветовое пространство : YUV
    Субдискретизация насыщенности : 4:2:0
    Битовая глубина : 8 бит
    Тип развёртки : Прогрессивная
    Бит/(Пиксели*Кадры) : 0.299
    Размер потока : 3,14 Гбайт (67%)
    Размер потока оригинала : 3,14 Гбайт (67%)
    Заголовок : Main Program
    Библиотека кодирования : x264 core 130 r2273 b3065e6
    Настройки программы : cabac=0 / ref=3 / deblock=1:-3:-2 / analyse=0x3:0x113 / me=umh / subme=9 / psy=1 / psy_rd=0.80:0.25 / mixed_ref=1 / me_range=32 / chroma_me=1 / trellis=0 / 8x8dct=1 / cqm=0 / deadzone=6,6 / fast_pskip=0 / chroma_qp_offset=-2 / threads=18 / lookahead_threads=1 / sliced_threads=0 / nr=0 / decimate=0 / interlaced=0 / bluray_compat=0 / constrained_intra=0 / bframes=3 / b_pyramid=0 / b_adapt=2 / b_bias=0 / direct=1 / weightb=0 / open_gop=0 / weightp=0 / keyint=240 / keyint_min=24 / scenecut=40 / intra_refresh=0 / rc_lookahead=40 / rc=2pass / mbtree=1 / bitrate=5000 / ratetol=1.0 / qcomp=0.80 / qpmin=0 / qpmax=69 / qpstep=4 / cplxblur=20.0 / qblur=0.5 / vbv_maxrate=9500 / vbv_bufsize=9500 / nal_hrd=none / ip_ratio=1.10 / aq=1:0.50
    Язык : English
    Дата кодирования : UTC 2016-02-05 13:13:57
    Дата пометки : UTC 2016-02-05 13:14:07
    Цветовой диапазон : Limited
    Основные цвета : BT.709
    Характеристики трансфера : BT.709
    Коэффициенты матрицы : BT.709
    Menus : 14,15
    Видео #2
    Идентификатор : 15
    Формат : JPEG
    Идентификатор кодека : jpeg
    Продолжительность : 1 ч. 29 м.
    Вид битрейта : Переменный
    Битрейт : 1019 бит/сек
    Ширина : 640 пикселей
    Высота : 272 пикселя
    Соотношение сторон : 2,35:1
    Режим частоты кадров : Переменный
    Частота кадров : 0,003 кадр/сек
    Минимальная частота кадров : 0,002 кадр/сек
    Максимальная частота кадров : 0,007 кадр/сек
    Цветовое пространство : YUV
    Субдискретизация насыщенности : 4:2:0
    Битовая глубина : 8 бит
    Метод сжатия : С потерями
    Бит/(Пиксели*Кадры) : 1.951
    Размер потока : 663 Кбайт (0%)
    Заголовок : Chapter Images
    Язык : English
    Default : Нет
    Дата кодирования : UTC 2016-02-05 14:40:10
    Дата пометки : UTC 2016-02-05 14:40:10
    Menu For : 1
    Аудио #1
    Идентификатор : 2
    Формат : AAC
    Формат/Информация : Advanced Audio Codec
    Профиль формата : LC
    Идентификатор кодека : 40
    Продолжительность : 1 ч. 29 м.
    Вид битрейта : Переменный
    Битрейт : 197 Кбит/сек
    Максимальный битрейт : 261 Кбит/сек
    Каналы : 2 канала
    Расположение каналов : Front: L R
    Частота : 48,0 КГц
    Частота кадров : 46,875 кадров/сек (1024 spf)
    Метод сжатия : С потерями
    Размер потока : 127 Мбайт (3%)
    Заголовок : Russian DVO Stereo
    Язык : Russian
    Default : Да
    Alternate group : 1
    Дата кодирования : UTC 2016-02-05 13:13:57
    Дата пометки : UTC 2016-02-05 13:14:10
    Fallback From : 7
    Menus : 14
    Аудио #2
    Идентификатор : 3
    Формат : AAC
    Формат/Информация : Advanced Audio Codec
    Профиль формата : LC
    Идентификатор кодека : 40
    Продолжительность : 1 ч. 29 м.
    Вид битрейта : Переменный
    Битрейт : 152 Кбит/сек
    Максимальный битрейт : 289 Кбит/сек
    Каналы : 2 канала
    Расположение каналов : Front: L R
    Частота : 48,0 КГц
    Частота кадров : 46,875 кадров/сек (1024 spf)
    Метод сжатия : С потерями
    Размер потока : 97,8 Мбайт (2%)
    Заголовок : Russian MVO TK Inter Stereo
    Язык : Russian
    Default : Нет
    Alternate group : 1
    Дата кодирования : UTC 2016-02-05 13:13:57
    Дата пометки : UTC 2016-02-05 13:14:10
    Аудио #3
    Идентификатор : 4
    Формат : AAC
    Формат/Информация : Advanced Audio Codec
    Профиль формата : LC
    Идентификатор кодека : 40
    Продолжительность : 1 ч. 29 м.
    Вид битрейта : Переменный
    Битрейт : 198 Кбит/сек
    Максимальный битрейт : 308 Кбит/сек
    Каналы : 2 канала
    Расположение каналов : Front: L R
    Частота : 48,0 КГц
    Частота кадров : 46,875 кадров/сек (1024 spf)
    Метод сжатия : С потерями
    Размер потока : 127 Мбайт (3%)
    Заголовок : Russian AVO V.Korolev Stereo
    Язык : Russian
    Default : Нет
    Alternate group : 1
    Дата кодирования : UTC 2016-02-05 13:38:08
    Дата пометки : UTC 2016-02-05 13:38:13
    Fallback From : 8
    Аудио #4
    Идентификатор : 5
    Формат : AAC
    Формат/Информация : Advanced Audio Codec
    Профиль формата : LC
    Идентификатор кодека : 40
    Продолжительность : 1 ч. 29 м.
    Вид битрейта : Переменный
    Битрейт : 150 Кбит/сек
    Максимальный битрейт : 285 Кбит/сек
    Каналы : 2 канала
    Расположение каналов : Front: L R
    Частота : 48,0 КГц
    Частота кадров : 46,875 кадров/сек (1024 spf)
    Метод сжатия : С потерями
    Размер потока : 96,3 Мбайт (2%)
    Заголовок : Russian AVO studiya Mega Stereo
    Язык : Russian
    Default : Нет
    Alternate group : 1
    Дата кодирования : UTC 2016-02-05 13:38:08
    Дата пометки : UTC 2016-02-05 13:38:13
    Аудио #5
    Идентификатор : 6
    Формат : AAC
    Формат/Информация : Advanced Audio Codec
    Профиль формата : LC
    Идентификатор кодека : 40
    Продолжительность : 1 ч. 29 м.
    Вид битрейта : Переменный
    Битрейт : 198 Кбит/сек
    Максимальный битрейт : 317 Кбит/сек
    Каналы : 2 канала
    Расположение каналов : Front: L R
    Частота : 48,0 КГц
    Частота кадров : 46,875 кадров/сек (1024 spf)
    Метод сжатия : С потерями
    Размер потока : 127 Мбайт (3%)
    Заголовок : English Stereo
    Язык : English
    Default : Нет
    Alternate group : 1
    Дата кодирования : UTC 2016-02-05 13:55:31
    Дата пометки : UTC 2016-02-05 13:55:34
    Fallback From : 9
    Аудио #6
    Идентификатор : 7
    Формат : AC-3
    Формат/Информация : Audio Coding 3
    Расширение режима : CM (complete main)
    Параметр Endianness формата : Big
    Идентификатор кодека : ac-3
    Продолжительность : 1 ч. 29 м.
    Вид битрейта : Постоянный
    Битрейт : 448 Кбит/сек
    Каналы : 6 каналов
    Расположение каналов : Front: L C R, Side: L R, LFE
    Частота : 48,0 КГц
    Частота кадров : 31,250 кадров/сек (1536 spf)
    Битовая глубина : 16 бит
    Метод сжатия : С потерями
    Размер потока : 288 Мбайт (6%)
    Заголовок : Russian DVO DD 5.1
    Язык : Russian
    Default : Inherited From: 2
    Alternate group : 1
    Дата кодирования : UTC 2016-02-05 14:29:31
    Дата пометки : UTC 2016-02-05 14:29:36
    Fallback To : 2
    Аудио #7
    Идентификатор : 8
    Формат : AC-3
    Формат/Информация : Audio Coding 3
    Расширение режима : CM (complete main)
    Параметр Endianness формата : Big
    Идентификатор кодека : ac-3
    Продолжительность : 1 ч. 29 м.
    Вид битрейта : Постоянный
    Битрейт : 448 Кбит/сек
    Каналы : 6 каналов
    Расположение каналов : Front: L C R, Side: L R, LFE
    Частота : 48,0 КГц
    Частота кадров : 31,250 кадров/сек (1536 spf)
    Битовая глубина : 16 бит
    Метод сжатия : С потерями
    Размер потока : 288 Мбайт (6%)
    Заголовок : Russian AVO V.Korolev DD 5.1
    Язык : Russian
    Default : Нет
    Alternate group : 1
    Дата кодирования : UTC 2016-02-05 14:29:31
    Дата пометки : UTC 2016-02-05 14:29:36
    Fallback To : 4
    Аудио #8
    Идентификатор : 9
    Формат : AC-3
    Формат/Информация : Audio Coding 3
    Расширение режима : CM (complete main)
    Параметр Endianness формата : Big
    Идентификатор кодека : ac-3
    Продолжительность : 1 ч. 29 м.
    Вид битрейта : Постоянный
    Битрейт : 640 Кбит/сек
    Каналы : 6 каналов
    Расположение каналов : Front: L C R, Side: L R, LFE
    Частота : 48,0 КГц
    Частота кадров : 31,250 кадров/сек (1536 spf)
    Битовая глубина : 16 бит
    Метод сжатия : С потерями
    Размер потока : 411 Мбайт (9%)
    Заголовок : English DD 5.1
    Язык : English
    Default : Нет
    Alternate group : 1
    Дата кодирования : UTC 2016-02-05 14:29:31
    Дата пометки : UTC 2016-02-05 14:29:36
    Fallback To : 6
    Текст #1
    Идентификатор : 10
    Формат : Timed Text
    Режим смешивания : sbtl
    Идентификатор кодека : tx3g
    Продолжительность : 1 ч. 25 м.
    Вид битрейта : Переменный
    Битрейт : 75 бит/сек
    Размер потока : 47,4 Кбайт (0%)
    Заголовок : Russian Subtitle
    Язык : Russian
    Default : Да
    Forced : Нет
    Alternate group : 2
    Дата кодирования : UTC 2016-02-05 14:37:39
    Дата пометки : UTC 2016-02-05 14:37:39
    Текст #2
    Идентификатор : 11
    Формат : Timed Text
    Режим смешивания : sbtl
    Идентификатор кодека : tx3g
    Продолжительность : 1 ч. 25 м.
    Вид битрейта : Переменный
    Битрейт : 60 бит/сек
    Размер потока : 37,4 Кбайт (0%)
    Заголовок : English SDH Subtitle
    Язык : English
    Default : Нет
    Forced : Нет
    Alternate group : 2
    Дата кодирования : UTC 2016-02-05 14:37:39
    Дата пометки : UTC 2016-02-05 14:37:39
    Текст #3
    Идентификатор : 12
    Формат : Timed Text
    Режим смешивания : sbtl
    Идентификатор кодека : tx3g
    Продолжительность : 1 ч. 25 м.
    Вид битрейта : Переменный
    Битрейт : 50 бит/сек
    Размер потока : 31,7 Кбайт (0%)
    Заголовок : French Subtitle
    Язык : French
    Default : Нет
    Forced : Нет
    Alternate group : 2
    Дата кодирования : UTC 2016-02-05 14:37:39
    Дата пометки : UTC 2016-02-05 14:37:39
    Текст #4
    Идентификатор : 13
    Формат : Timed Text
    Режим смешивания : sbtl
    Идентификатор кодека : tx3g
    Продолжительность : 1 ч. 25 м.
    Вид битрейта : Переменный
    Битрейт : 54 бит/сек
    Размер потока : 34,0 Кбайт (0%)
    Заголовок : Spanish Subtitle
    Язык : Spanish
    Default : Нет
    Forced : Нет
    Alternate group : 2
    Дата кодирования : UTC 2016-02-05 14:37:39
    Дата пометки : UTC 2016-02-05 14:37:39
    Меню #1
    00:00:00.000 : Main Title/Wyld Stallyns
    00:05:02.033 : History Challenge
    00:09:52.800 : The Future Calls
    00:17:24.800 : Circuits of History
    00:23:56.534 : The Wild West
    00:28:46.801 : Ancient Greece
    00:31:02.502 : Medieval Times
    00:38:56.836 : Two Headless Dudes
    00:41:33.136 : Party On, Dudes
    00:46:13.204 : Gather the Troops
    00:52:34.371 : Patchwork
    00:55:46.005 : San Dimas
    01:01:47.505 : Mall Trouble
    01:07:33.473 : Prison Break
    01:12:58.307 : History World Tour
    01:21:34.074 : Jam Session/Credits
    Меню #2
    Идентификатор : 14
    Идентификатор кодека : text
    Продолжительность : 1 ч. 29 м.
    Заголовок : Chapter Titles
    Язык : English
    Дата кодирования : UTC 2016-02-05 14:40:05
    Дата пометки : UTC 2016-02-05 14:40:05
    Menu For : 2,1
    00:00:00.000 : Main Title/Wyld Stallyns
    00:05:02.033 : History Challenge
    00:09:52.800 : The Future Calls
    00:17:24.800 : Circuits of History
    00:23:56.534 : The Wild West
    00:28:46.801 : Ancient Greece
    00:31:02.502 : Medieval Times
    00:38:56.836 : Two Headless Dudes
    00:41:33.136 : Party On, Dudes
    00:46:13.204 : Gather the Troops
    00:52:34.371 : Patchwork
    00:55:46.005 : San Dimas
    01:01:47.505 : Mall Trouble
    01:07:33.473 : Prison Break
    01:12:58.307 : History World Tour
    01:21:34.074 : Jam Session/Credits
    Вид битрейта : VBR

    x264 лог 480p Release

    HandBrakeCLI -i "/Bill.and.Teds.Excellent.Adventure.1989.BDRemux/BDMV/STREAM/00000.m2ts" -t 1 -o "Bill.and.Teds.Excellent.Adventure.480p.eng.m4v" -f mp4 -I -O -w 640 -l 368 --crop 130:132:0:0 --custom-anamorphic --modulus 16 --pixel-aspect 852:640 -e x264 -b 1700 -2 -a none -x cabac=0:ref=2:me=umh:bframes=0:weightp=0:subq=6:8x8dct=0:trellis=0:vbv-maxrate=5000:vbv-bufsize=5000 --verbose=1
    x264 [info]: frame I:1961  Avg QP:18.28  size: 33712  PSNR Mean Y:45.12 U:49.56 V:50.19 Avg:46.08 Global:45.49
    x264 [info]: frame P:127302 Avg QP:20.31  size:  8472  PSNR Mean Y:42.64 U:49.05 V:49.27 Avg:43.68 Global:43.18
    x264 [info]: mb I  I16..4: 17.6%  0.0% 82.4%
    x264 [info]: mb P  I16..4:  0.5%  0.0%  2.7%  P16..4: 47.6% 23.4% 10.6%  0.0%  0.0%    skip:15.3%
    x264 [info]: coded y,uvDC,uvAC intra: 86.2% 82.1% 58.4% inter: 36.9% 25.8% 5.0%
    x264 [info]: i16 v,h,dc,p: 36% 14%  9% 40%
    x264 [info]: i4 v,h,dc,ddl,ddr,vr,hd,vl,hu: 26% 13% 14%  7%  9% 11%  7%  9%  6%
    x264 [info]: i8c dc,h,v,p: 49% 15% 27%  9%
    x264 [info]: ref P L0: 73.9% 26.1%
    x264 [info]: SSIM Mean Y:0.9778945 (16.555db)
    x264 [info]: PSNR Mean Y:42.675 U:49.058 V:49.287 Avg:43.718 Global:43.212 kb/s:1698.34

    x264 лог 720p Release

    HandBrakeCLI -i "/Bill.and.Teds.Excellent.Adventure.1989.BDRemux/BDMV/STREAM/00000.m2ts" -t 1 -o "Bill.and.Teds.Excellent.Adventure.720p.eng.m4v" -f mp4 -4 -O -w 1280 -l 544 --crop 130:132:0:0 --modulus 16 -e x264 -b 5000 -2 -a none -x cabac=0:ref=3:me=umh:b-pyramid=none:b-adapt=2:weightb=0:trellis=0:weightp=0:vbv-maxrate=9500:vbv-bufsize=9500:subq=9:merange=32:deblock=-3,-2:qcomp=0.80:qpmin=0:qpmax=69:fast_pskip=0:aq-strength=0.5:no-dct-decimate=1:psy-rd=0.80,0.25:ipratio=1.1:pbratio=1.1:deadzone-inter=6:deadzone-intra=6 --verbose=1
    x264 [info]: frame I:1259  Avg QP:20.40  size: 81682  PSNR Mean Y:44.86 U:49.30 V:50.16 Avg:45.80 Global:45.39
    x264 [info]: frame P:42286 Avg QP:21.28  size: 45529  PSNR Mean Y:44.15 U:49.90 V:50.64 Avg:45.18 Global:44.70
    x264 [info]: frame B:85718 Avg QP:22.82  size: 15637  PSNR Mean Y:42.75 U:49.63 V:50.50 Avg:43.92 Global:43.44
    x264 [info]: consecutive B-frames:  2.2% 12.5% 46.9% 38.4%
    x264 [info]: mb I  I16..4:  7.5% 65.2% 27.2%
    x264 [info]: mb P  I16..4:  1.2%  9.6%  3.2%  P16..4: 45.4% 25.1% 10.4%  0.0%  0.0%    skip: 4.9%
    x264 [info]: mb B  I16..4:  0.1%  1.3%  0.5%  B16..8: 30.6%  9.8%  1.7%  direct: 8.0%  skip:47.9%  L0:34.3% L1:36.2% BI:29.5%
    x264 [info]: 8x8 transform intra:68.1% inter:43.3%
    x264 [info]: coded y,uvDC,uvAC intra: 92.1% 73.7% 41.1% inter: 43.3% 18.3% 5.3%
    x264 [info]: i16 v,h,dc,p: 40% 16%  7% 37%
    x264 [info]: i8 v,h,dc,ddl,ddr,vr,hd,vl,hu: 11%  7%  5% 11% 16% 15% 14% 12% 10%
    x264 [info]: i4 v,h,dc,ddl,ddr,vr,hd,vl,hu: 12%  9%  2% 10% 17% 16% 14% 11%  9%
    x264 [info]: i8c dc,h,v,p: 48% 18% 23% 11%
    x264 [info]: ref P L0: 66.6% 20.7% 12.7%
    x264 [info]: ref B L0: 81.5% 18.5%
    x264 [info]: SSIM Mean Y:0.9715281 (15.456db)
    x264 [info]: PSNR Mean Y:43.230 U:49.719 V:50.546 Avg:44.351 Global:43.828 kb/s:4998.20

    Скриншоты 480p Release

    Скриншоты 720p Release

    -

    Релиз подготовлен для просмотра на Apple TV, iPad, iPhone, iPod Touch.
    Для просмотра данного релиза на компьютере с ОС Windows рекомендуется использовать VLC media player
    Скачать .torrent

    Скачать торрент-файл бесплатно и на максимальной скорости!

    Как скачивать? · Что такое торрент? · Рейтинг и ограничения

    !ВНИМАНИЕ!
    Сайт не распространяет и не хранит электронные версии произведений, а занимается лишь лишь предоставлением доступа к создаваемому пользователями каталогу ссылок на торрент-файлы, которые содержат только списки хеш-сумм, убедительная просьба с жалобами обращаться напрямую к пользователю. Файлы для обмена на трекере предоставлены пользователями сайта, и администрация не несёт ответственности за их содержание. Просьба не заливать файлы, защищенные авторскими правами, а также файлы нелегального содержания!


    _________________
    [Профиль] [ЛС]
    Показать сообщения:    
    Ответить на тему

    Текущее время: Сегодня, в 14:26

    Часовой пояс: GMT + 2



    Вы не можете начинать темы
    Вы не можете отвечать на сообщения
    Вы не можете редактировать свои сообщения
    Вы не можете удалять свои сообщения
    Вы не можете голосовать в опросах
    Вы не можете прикреплять файлы к сообщениям
    Вы не можете скачивать файлы