BitTorrentTracker PerecTracker.org
BitTorrentTracker PerecTracker.org
    
Регистрация  ·  Вход
 
 · 
Забыли пароль?

  • Комната страха №205 / 205 - Zimmer der Angst (Райнер Мацутани / Rainer Matsutani) [2011, Германия, ужасы, драма, BDRip] (Полная версия / Uncut) MVO (т/к Кинопоказ) + Original Ger

    Ответить на тему
     
    Автор Сообщение

    rechyn

    Создавать темы 06-Фев-2016 19:26

           

    [Цитировать]

    Комната страха №205 / 205 - Zimmer der Angst (Полная версия / Uncut)
    Страна: Германия
    Жанр: ужасы, драма
    Год выпуска: 2011
    Продолжительность: 01:43:50-Перевод: Профессиональный (многоголосый закадровый) т/к Кинопоказ
    Cубтитры: нет
    Оригинальная аудиодорожка: немецкий-Режиссер: Райнер Мацутани / Rainer Matsutani-В ролях: Дженнифер Ульрих, Андре Хеннике, Инес Бьёрг Давид, Тино Мевес, Ханс-Уве Бауэр, Флориан Яр, Юлия Дитце, Даниэль Рёснер, Марлен Лозе, Люси Элла фон Шиле, Гитта Швайгхефер, Анна Ланге, Аарон Ле, Мартин Умбах, Каролина Торварт, Эйла Виттиг, Джулиан Грегори, Маттиас Халброк, Ута Бонз, Дэннис Ганзель, Пауль Раковски, Кай Майкл Уолтер, Тристан Гёбель-Описание: Что произошло в комнате N205? Почему на протяжении года в ней никто не жил? Катрин сильно по этому поводу не заморачивается и поселяется в комнате, а это означает свободу. Свободу от дома, свободу от надоевшего своей опекой отца. Семестр вот-вот начнется, а это значит, что пора повеселиться, завести новых друзей, попасть на вечеринку, переспать с кем-то, и конечно же отправится в свой класс. Но вскоре начинают происходить загадочные события в ее комнате, и она начинает понимать, почему до нее никто не хотел поселиться в комнате N205.-Доп. информация: В версии фильма для российского ТВ отсутствовало 6 сцен, включённых в версию фильма, вышедшую на BluRay, поэтому в переводе есть 2 вставки без перевода - 00:56:22.530...00:58:35.800 и 01:29:14.330...01:37:15.030-Сэмпл: http://sendfile.su/1201317-Качество видео: BDRip
    Качество: BDRip (исходник: 205 - Zimmer der Angst.2011.Blu-Ray.Remux.1080p.mkv)
    Формат видео: AVI
    Видео: 688x288 (2.40:1), 23.976 fps, XviD build 50 ~2185 kbps avg, 0.46 bit/pixel
    Аудио #1: 48 kHz, AC3 Dolby Digital, 2/0 (L,R) ch, ~192 kbps / русский
    Аудио #2: 48 kHz, AC3 Dolby Digital, 3/2 (L,C,R,l,r) + LFE ch, ~448 kbps / оригинал

    MediaInfo

    Формат : AVI
    Формат/Информация : Audio Video Interleave
    Профиль формата : OpenDML
    Размер файла : 2,06 Гбайт
    Продолжительность : 1 ч. 43 м.
    Общий поток : 2842 Кбит/сек
    Программа кодирования : VirtualDubMod 1.5.10.3 | www.virtualdub-fr.org || (build 2550/release)
    Библиотека кодирования : VirtualDubMod build 2550/release
    Видео
    Идентификатор : 0
    Формат : MPEG-4 Visual
    Профиль формата : Advanced Simple@L5
    Параметр BVOP формата : 1
    Параметр QPel формата : Нет
    Параметр GMC формата : Без точки перехода
    Параметр матрицы формата : Default (MPEG)
    Идентификатор кодека : XVID
    Идентификатор кодека/Подсказка : XviD
    Продолжительность : 1 ч. 43 м.
    Битрейт : 2185 Кбит/сек
    Ширина : 688 пикселей
    Высота : 288 пикселей
    Соотношение сторон : 2,40:1
    Частота кадров : 23,976 (23976/1000) кадра/сек
    Цветовое пространство : YUV
    Субдискретизация насыщенности : 4:2:0
    Битовая глубина : 8 бит
    Тип развёртки : Прогрессивная
    Метод сжатия : С потерями
    Бит/(Пиксели*Кадры) : 0.460
    Размер потока : 1,58 Гбайт (77%)
    Библиотека кодирования : XviD 1.2.1 (UTC 2008-12-04)
    Аудио #1
    Идентификатор : 1
    Формат : AC-3
    Формат/Информация : Audio Coding 3
    Расширение режима : CM (complete main)
    Параметр Endianness формата : Big
    Идентификатор кодека : 2000
    Продолжительность : 1 ч. 43 м.
    Вид битрейта : Постоянный
    Битрейт : 192 Кбит/сек
    Каналы : 2 канала
    Расположение каналов : Front: L R
    Частота : 48,0 КГц
    Частота кадров : 31,250 кадров/сек (1536 spf)
    Метод сжатия : С потерями
    Размер потока : 143 Мбайт (7%)
    Выравнивание : Разделение по промежуткам
    Продолжительность промежутка : 42 мс. (1,00 видеокадр)
    Время предзагрузки промежутка : 500 мс.
    Аудио #2
    Идентификатор : 2
    Формат : AC-3
    Формат/Информация : Audio Coding 3
    Расширение режима : CM (complete main)
    Параметр Endianness формата : Big
    Идентификатор кодека : 2000
    Продолжительность : 1 ч. 43 м.
    Вид битрейта : Постоянный
    Битрейт : 448 Кбит/сек
    Каналы : 6 каналов
    Расположение каналов : Front: L C R, Side: L R, LFE
    Частота : 48,0 КГц
    Частота кадров : 31,250 кадров/сек (1536 spf)
    Метод сжатия : С потерями
    Размер потока : 332 Мбайт (16%)
    Выравнивание : Разделение по промежуткам
    Продолжительность промежутка : 42 мс. (1,00 видеокадр)
    Время предзагрузки промежутка : 500 мс.

    Скриншот c названием фильма

    Скриншоты





    Скачать .torrent

    Скачать торрент-файл бесплатно и на максимальной скорости!

    Как скачивать? · Что такое торрент? · Рейтинг и ограничения

    !ВНИМАНИЕ!
    Сайт не распространяет и не хранит электронные версии произведений, а занимается лишь лишь предоставлением доступа к создаваемому пользователями каталогу ссылок на торрент-файлы, которые содержат только списки хеш-сумм, убедительная просьба с жалобами обращаться напрямую к пользователю. Файлы для обмена на трекере предоставлены пользователями сайта, и администрация не несёт ответственности за их содержание. Просьба не заливать файлы, защищенные авторскими правами, а также файлы нелегального содержания!


    _________________
    [Профиль] [ЛС]
    Показать сообщения:    
    Ответить на тему

    Текущее время: Сегодня, в 08:08

    Часовой пояс: GMT + 2



    Вы не можете начинать темы
    Вы не можете отвечать на сообщения
    Вы не можете редактировать свои сообщения
    Вы не можете удалять свои сообщения
    Вы не можете голосовать в опросах
    Вы не можете прикреплять файлы к сообщениям
    Вы не можете скачивать файлы