BitTorrentTracker PerecTracker.org
BitTorrentTracker PerecTracker.org
    
Регистрация  ·  Вход
 
 · 
Забыли пароль?

  • Проект 12: Бункер / Project 12: The Bunker (Джейми Фалеро / Jaime Falero) [2016, Испания, Фантастика, боевик, триллер, приключения, WEB-DLRip] VO (datynet; перевод: Куценко)

    Ответить на тему
     
    Автор Сообщение

    Light

    Создавать темы 06-Фев-2016 15:14

           

    [Цитировать]

    Проект 12: Бункер / Project 12: The BunkerСтрана: Испания
    Жанр: Фантастика, боевик, триллер, приключения
    Год выпуска: 2016
    Продолжительность: 01:37:08
    Перевод: Одноголосый закадровый datynet; перевод: Куценко
    Cубтитры: нет
    Режиссер: Джейми Фалеро / Jaime Falero
    В ролях: Джеймс Космо, Хоакин Санчез, Наташа Алам, Эрик Робертс, Тимоти Гиббс, Тони Корвильо, Джеймс Коннер Фергюсон, Хосе Луис Де Мадарьяга
    Описание: В начале семидесятых годов в самый разгар Холодной войны Советский Союз вёл инновационные разработки разрушительного оружия, способного в один миг прекратить войну и изменить ход человеческой истории. Для работ над Проектом 12 были привлечены лучшие умы Союза, трудившиеся сутки напролёт над непобедимой машиной - армией солдат с невероятными способностями, которых не берут ни пули, ни время. В итоге руководство сочло Проект 12 слишком опасным и закрыло его, приказав убить всех участвовавших в разработке учёных, чтобы сохранить секрет от мира. Троим удалось сбежать из под огня и скрыться, а Проект 12 был захоронен в особо охраняемом подземном бункере, заброшенном в пустыне много лет назад.
    Спустя сорок пять лет некто могущественный вознамерился завладеть советскими технологиями и нанял группу лучших в мире охотников за головами, чтобы отыскать последнего выжившего учёного и с его помощью узнать месторасположение бункера Проекта 12. Наёмники успешно справляются с задачей и вместе с бывшим сотрудником секретной советской организации проникают в тот самый бункер, где оказываются один на один с армией машин, созданных для уничтожения любой угрозы. Попасть в заветный бункер было просто, а вот выбраться невозможно.

    Доп. информация:

    Сэмпл: http://sendfile.su/1201288/
    Качество видео: WEB-DLRip
    Формат видео: MKV
    Видео: MPEG4 Video (H264) 720x306 23.81fps
    Аудио: 48 kHz, MP3, 2 channels, stereo, 192 kbps

    MediaInfo

    General
    Unique ID : 246842579265765711506607805720876842076 (0xB9B426C86D495E9BB29F9DF464587C5C)
    Complete name : E:\Project 12 The Bunker 2016.mkv
    Format : Matroska
    Format version : Version 4 / Version 2
    File size : 760 MiB
    Duration : 1h 37mn
    Overall bit rate : 1 094 Kbps
    Encoded date : UTC 2016-02-05 17:29:36
    Writing application : mkvmerge v8.6.1 ('Flying') 64bit
    Writing library : libebml v1.3.3 + libmatroska v1.4.4
    Video
    ID : 1
    Format : AVC
    Format/Info : Advanced Video Codec
    Format profile : Main@L4.0
    Format settings, CABAC : Yes
    Format settings, ReFrames : 4 frames
    Codec ID : V_MPEG4/ISO/AVC
    Duration : 1h 37mn
    Bit rate : 900 Kbps
    Width : 720 pixels
    Height : 306 pixels
    Display aspect ratio : 2.35:1
    Frame rate mode : Constant
    Frame rate : 23.976 fps
    Color space : YUV
    Chroma subsampling : 4:2:0
    Bit depth : 8 bits
    Scan type : Progressive
    Bits/(Pixel*Frame) : 0.170
    Stream size : 612 MiB (80%)
    Writing library : x264 core 142 r2479 dd79a61
    Default : Yes
    Forced : No
    Color primaries : BT.601 NTSC
    Transfer characteristics : BT.709
    Matrix coefficients : BT.601
    Color range : Limited
    Audio
    ID : 2
    Format : MPEG Audio
    Format version : Version 1
    Format profile : Layer 3
    Codec ID : A_MPEG/L3
    Codec ID/Hint : MP3
    Duration : 1h 37mn
    Bit rate mode : Constant
    Bit rate : 192 Kbps
    Channel(s) : 2 channels
    Sampling rate : 48.0 KHz
    Compression mode : Lossy
    Stream size : 133 MiB (18%)
    Default : Yes
    Forced : No

    Скриншот c названием фильма

    Скриншоты











    Скачать .torrent

    Скачать торрент-файл бесплатно и на максимальной скорости!

    Как скачивать? · Что такое торрент? · Рейтинг и ограничения

    !ВНИМАНИЕ!
    Сайт не распространяет и не хранит электронные версии произведений, а занимается лишь лишь предоставлением доступа к создаваемому пользователями каталогу ссылок на торрент-файлы, которые содержат только списки хеш-сумм, убедительная просьба с жалобами обращаться напрямую к пользователю. Файлы для обмена на трекере предоставлены пользователями сайта, и администрация не несёт ответственности за их содержание. Просьба не заливать файлы, защищенные авторскими правами, а также файлы нелегального содержания!


    _________________
    [Профиль] [ЛС]
    Показать сообщения:    
    Ответить на тему

    Текущее время: Сегодня, в 20:24

    Часовой пояс: GMT + 2



    Вы не можете начинать темы
    Вы не можете отвечать на сообщения
    Вы не можете редактировать свои сообщения
    Вы не можете удалять свои сообщения
    Вы не можете голосовать в опросах
    Вы не можете прикреплять файлы к сообщениям
    Вы не можете скачивать файлы