BitTorrentTracker PerecTracker.org
BitTorrentTracker PerecTracker.org
    
Регистрация  ·  Вход
 
 · 
Забыли пароль?

  • Глобальная угроза / Global Effect (Терри Каннингэм / Terry Cunningham) [2002, США, боевик, триллер, DVDRip] MVO

    Ответить на тему
     
    Автор Сообщение

    Columb

    Создавать темы 29-Дек-2013 12:16

           

    [Цитировать]

    Глобальная угроза / Global Effect--Страна: США
    Жанр: боевик, триллер
    Год выпуска: 2002
    Продолжительность: 01:34:36-Перевод: Профессиональный (многоголосый закадровый)
    Cубтитры: нет
    Режиссер: Терри Каннингэм / Terry Cunningham-В ролях: Медкен Эмик / Mädchen Amick, Дэниэл Бернхард / Daniel Bernhardt, Джоэль Уэст / Joel West, Кэролин Хеннеси / Carolyn Hennesy, Арнольд Вослоу / Arnold Vosloo, Марк Бейли / Mark Bayly, Теренс Бриджет / Terence Bridgett, Майкл Копли / Michael Copley, Жерон Краненбург / Jeroen Kranenburg, Кирсти Лейт / Kirsty Leith-Описание: В результате дерзкого нападения на секретную биолабораторию в ЮАР, в руках террористов оказывается вирус «монгия», убивающий человека за пару часов. Их главарь, экстравагантный психопат Найл Спенсер, хочет смертью очистить человечество от скверны и грехов, чтобы с выжившими построить новый мир.
    Безумцы заражают Кейптаун, люди умирают на глазах у беспомощных врачей, но доктор Сэра Левитт, пленница Спенсера, не желает дать убийцам спасительное противоядие. В результате спецоперации отважный спецназовец Маркус Пойнт спасает Сэру, однако бандитам удается захватить сыворотку, и теперь только Сэра и Маркус могут остановить Спенсера и спасти человечество от катастрофы, ведь Пентагон уже принял решение стереть Южную Африку с лица Земли…--Исходник: DVD9
    Качество видео: DVDRip
    Формат видео: AVI-Видео: 592x448 (1.32:1), 25 fps, XviD build 50 ~960 kbps avg, 0.14 bit/pixel
    Аудио: 48 kHz, MPEG Layer 3, 2 ch, ~128.00 kbps avg

    MediaInfo

    Общее
    Полное имя : C:\Users\к\Desktop\фильмы\Глобальная угроза_2002_DVDrip_Xvid.avi
    Формат : AVI
    Формат/Информация : Audio Video Interleave
    Размер файла : 743 Мбайт
    Продолжительность : 1 ч. 34 м.
    Общий поток : 1099 Кбит/сек
    Программа кодирования : VirtualDubMod 1.5.10.3 | (build 2550/release)
    Библиотека кодирования : VirtualDubMod build 2550/release
    Видео
    Идентификатор : 0
    Формат : MPEG-4 Visual
    Профиль формата : Advanced Simple@L5
    Параметр BVOP формата : 2
    Параметр QPel формата : Нет
    Параметр GMC формата : Без точки перехода
    Параметр матрицы формата : Default (H.263)
    Идентификатор кодека : XVID
    Идентификатор кодека/Подсказка : XviD
    Продолжительность : 1 ч. 34 м.
    Битрейт : 961 Кбит/сек
    Ширина : 592 пикселя
    Высота : 448 пикселей
    Соотношение сторон : 4:3
    Частота кадров : 25,000 кадров/сек
    Цветовое пространство : YUV
    Субдискретизация насыщенности : 4:2:0
    Битовая глубина : 8 бит
    Тип развёртки : Прогрессивная
    Метод сжатия : С потерями
    Бит/(Пиксели*Кадры) : 0.145
    Размер потока : 650 Мбайт (87%)
    Библиотека кодирования : XviD 1.2.1 (UTC 2008-12-04)
    Аудио
    Идентификатор : 1
    Формат : MPEG Audio
    Версия формата : Version 1
    Профиль формата : Layer 3
    Идентификатор кодека : 55
    Идентификатор кодека/Подсказка : MP3
    Продолжительность : 1 ч. 34 м.
    Вид битрейта : Постоянный
    Битрейт : 128 Кбит/сек
    Каналы : 2 канала
    Частота : 48,0 КГц
    Метод сжатия : С потерями
    Размер потока : 86,6 Мбайт (12%)
    Выравнивание : Соединение по промежуткам
    Продолжительность промежутка : 40 мс. (1,00 видеокадр)
    Время предзагрузки промежутка : 504 мс.
    Библиотека кодирования : LAME3.99r
    Настройки программы : -m s -V 4 -q 2 -lowpass 17 -b 128

    Скриншоты


    Скачать .torrent

    Скачать торрент-файл бесплатно и на максимальной скорости!

    Как скачивать? · Что такое торрент? · Рейтинг и ограничения

    !ВНИМАНИЕ!
    Сайт не распространяет и не хранит электронные версии произведений, а занимается лишь лишь предоставлением доступа к создаваемому пользователями каталогу ссылок на торрент-файлы, которые содержат только списки хеш-сумм, убедительная просьба с жалобами обращаться напрямую к пользователю. Файлы для обмена на трекере предоставлены пользователями сайта, и администрация не несёт ответственности за их содержание. Просьба не заливать файлы, защищенные авторскими правами, а также файлы нелегального содержания!

    [Профиль] [ЛС]
    Показать сообщения:    
    Ответить на тему

    Текущее время: Сегодня, в 10:44

    Часовой пояс: GMT + 2



    Вы не можете начинать темы
    Вы не можете отвечать на сообщения
    Вы не можете редактировать свои сообщения
    Вы не можете удалять свои сообщения
    Вы не можете голосовать в опросах
    Вы не можете прикреплять файлы к сообщениям
    Вы не можете скачивать файлы