BitTorrentTracker PerecTracker.org
BitTorrentTracker PerecTracker.org
    
Регистрация  ·  Вход
 
 · 
Забыли пароль?

  • Сталинград (2013) DVD5

    Ответить на тему
     
    Автор Сообщение

    BOSS

    Создавать темы 06-Фев-2016 09:27

           

    [Цитировать]

    --Информация о фильме
    Название: Сталинград
    Год выхода: 2013
    Жанр: военный, драма, боевик
    Режиссер: Фёдор Бондарчук
    В ролях: Мария Смольникова, Янина Студилина, Пётр Фёдоров, Томас Кречман, Сергей Бондарчук, Дмитрий Лысенков, Андрей Смоляков, Алексей Барабаш, Олег Волку, Хайнер Лаутербах-О фильме:
    1942-й год. Сталинград. Советские войска планируют контрнаступление на немецкие части, занявшие правый берег Волги. Наступление сорвано. Лишь разведчикам под командованием капитана Громова удается перебраться на другой берег и закрепиться в одном из домов. Им дан приказ удержать его любой ценой. Кроме нескольких чудом уцелевших советских солдат они находят в доме его последнюю жительницу — 19-летнюю Катю.
    Приказ отбить дом, захваченный противником, получает немецкий офицер Кан. На фоне одного из самых кровопролитных сражений в истории человечества разворачиваются истории любви и драматического противостояния характеров.- -Страна: Россия
    Студия: Art Pictures Studio, Нон-стоп Продакшн
    Продолжительность: 125 мин. / 02:05
    Перевод: не требуется-Файл
    Кодек: MPEG2
    Качество: DVD5 (сжатый)
    Видео: PAL 16:9 (720x576@1024x576) VBR 4239 Kbps, 25.000 fps
    Аудио: Dolby AC3, 6 ch, 48.0 KHz, 448 Kbps
    Субтитры: отсутствуют--

    Процесс изготовления диска

    Исходник: Сталинград (2013) 2 x DVD9
    Удалены: предупреждающие надписи, доп. материалы, русские звуковые дорожки Dolby AC3, 2 ch; DTS, 6 ch (в меню кнопки затерты).
    Видео сжато на 31%
    Меню: статичное, недействующие кнопки затерты и закрыты.
    Обработка и сжатие: DVD ReMake Pro + DVD Rebuilder + CCE SP2 [5 проходов] + Работа с меню (Adobe PhotoShop и MuxMan).

    MediaInfo

    General
    Complete name : D:Stalyngrad.2013.DVD5VIDEO_TSVTS_02_1.VOB
    Format : MPEG-PS
    File size : 1 024 MiB
    Duration : 29mn 56s
    Overall bit rate : 4 782 Kbps
    Video
    ID : 224 (0xE0)
    Format : MPEG Video
    Format version : Version 2
    Format profile : Main@Main
    Format settings, BVOP : Yes
    Format settings, Matrix : Custom
    Duration : 29mn 56s
    Bit rate mode : Variable
    Bit rate : 4 239 Kbps
    Maximum bit rate : 8 468 Kbps
    Width : 720 pixels
    Height : 576 pixels
    Display aspect ratio : 16:9
    Frame rate : 25.000 fps
    Standard : PAL
    Color space : YUV
    Chroma subsampling : 4:2:0
    Bit depth : 8 bits
    Scan type : Progressive
    Scan order : Bottom Field First
    Compression mode : Lossy
    Bits/(Pixel*Frame) : 0.409
    Stream size : 908 MiB (89%)
    Audio
    ID : 189 (0xBD)-128 (0x80)
    Format : AC-3
    Format/Info : Audio Coding 3
    Mode extension : CM (complete main)
    Muxing mode : DVD-Video
    Duration : 29mn 56s
    Bit rate mode : Constant
    Bit rate : 448 Kbps
    Channel(s) : 6 channels
    Channel positions : Front: L C R, Side: L R, LFE
    Sampling rate : 48.0 KHz
    Bit depth : 16 bits
    Compression mode : Lossy
    Stream size : 95.9 MiB (9%)
    Menu

    Скриншоты


    Скачать .torrent

    Скачать торрент-файл бесплатно и на максимальной скорости!

    Как скачивать? · Что такое торрент? · Рейтинг и ограничения

    !ВНИМАНИЕ!
    Сайт не распространяет и не хранит электронные версии произведений, а занимается лишь лишь предоставлением доступа к создаваемому пользователями каталогу ссылок на торрент-файлы, которые содержат только списки хеш-сумм, убедительная просьба с жалобами обращаться напрямую к пользователю. Файлы для обмена на трекере предоставлены пользователями сайта, и администрация не несёт ответственности за их содержание. Просьба не заливать файлы, защищенные авторскими правами, а также файлы нелегального содержания!

    [Профиль] [ЛС]
    Показать сообщения:    
    Ответить на тему

    Текущее время: Сегодня, в 02:38

    Часовой пояс: GMT + 2



    Вы не можете начинать темы
    Вы не можете отвечать на сообщения
    Вы не можете редактировать свои сообщения
    Вы не можете удалять свои сообщения
    Вы не можете голосовать в опросах
    Вы не можете прикреплять файлы к сообщениям
    Вы не можете скачивать файлы