BitTorrentTracker PerecTracker.org
BitTorrentTracker PerecTracker.org
    
Регистрация  ·  Вход
 
 · 
Забыли пароль?

  • Замуж на 2 дня / Un plan parfait (Паскаль Шомель / Pascal Chaumeil) [2012, Франция, мелодрама, комедия, приключения, BDRip] [GER-Transfer] Dub BD

    Ответить на тему
     
    Автор Сообщение

    rechyn

    Создавать темы 06-Фев-2016 02:39

           

    [Цитировать]

    Замуж на 2 дня / Un plan parfait-Страна: Франция / Alvy Productions, Chaocorp Distribution, Ciné, Cinémage 5 Développement...
    Жанр: мелодрама, комедия, приключения
    Год выпуска: 2012
    Продолжительность: 01:45:13
    Перевод: Профессиональный (дублированный) лицензия BD
    Cубтитры: нет
    Режиссёр: Паскаль Шомель / Pascal Chaumeil
    В ролях: Дайан Крюгер, Дэни Бун, Алис Поль, Робер Планьоль, Джонатан Коэн, Бернадетт Ле Саше, Этьен Шико, Лорэ Кэлами, Мэлонн Левана, Оливье Клавери.
    Описание: Изабель мечтает о свадьбе. Но на её семье лежит проклятие. Все первые браки неминуемо заканчиваются разводами. Поэтому, когда ее парень делает ей предложение, Изабель решает перехитрить судьбу. Она отыскивает первого попавшегося лузера, влюбляет его в себя и: вместо того, чтобы развестись, случайно влюбляется сама.-Рейтинг
    imdb.com: 6.30 (5 163)
    kinopoisk.ru: 6.797 (14 704)
    -Сэмпл: http://multi-up.com/1087771-Качество видео: BDRip [UN_PLAN_PARFAIT_BDREMUX_HDCLUB]
    Формат видео: AVI
    Видео: XviD build 66, 720x304 (2.37:1), 23.976 fps, ~1597 kbps avg, 0.304 bit/pixel
    Аудио: 48 kHz, AC3 Dolby Digital, 3/2 (L,C,R,l,r) + LFE ch, ~384 kbps avg (Dub)
    -

    MediaInfo

    Общее
    Полное имя : D:\Un.plan.parfiat.2012.GER-Transfer.Dub.BDRip.1,46Gb.XviD.AC3.avi
    Формат : AVI
    Формат/Информация : Audio Video Interleave
    Размер файла : 1,46 Гбайт
    Продолжительность : 1 ч. 45 м.
    Общий поток : 1990 Кбит/сек
    Название фильма : Un plan parfait 2012. [GER-Transfer]
    Режиссёр : Pascal Chaumeil
    Дата записи : 04.02.2016
    Программа кодирования : VirtualDubModRus 1.5.10.2 (build 2542/release)
    Библиотека кодирования : VirtualDubMod build 2542/release
    Правообладатель : Rutracker.org
    Примечание : BDRip by MooN_WalkeR
    Видео
    Идентификатор : 0
    Формат : MPEG-4 Visual
    Профиль формата : Advanced Simple@L5
    Параметр BVOP формата : 1
    Параметр QPel формата : Нет
    Параметр GMC формата : Без точки перехода
    Параметр матрицы формата : Выборочная
    Идентификатор кодека : XVID
    Идентификатор кодека/Подсказка : XviD
    Продолжительность : 1 ч. 45 м.
    Битрейт : 1597 Кбит/сек
    Ширина : 720 пикселей
    Высота : 304 пикселя
    Соотношение сторон : 2,35:1
    Частота кадров : 23,976 кадра/сек
    Цветовое пространство : YUV
    Субдискретизация насыщенности : 4:2:0
    Битовая глубина : 8 бит
    Тип развёртки : Прогрессивная
    Метод сжатия : С потерями
    Бит/(Пиксели*Кадры) : 0.304
    Размер потока : 1,17 Гбайт (80%)
    Библиотека кодирования : XviD 66
    Аудио
    Идентификатор : 1
    Формат : AC-3
    Формат/Информация : Audio Coding 3
    Расширение режима : CM (complete main)
    Параметр Endianness формата : Big
    Идентификатор кодека : 2000
    Продолжительность : 1 ч. 45 м.
    Вид битрейта : Постоянный
    Битрейт : 384 Кбит/сек
    Каналы : 6 каналов
    Расположение каналов : Front: L C R, Side: L R, LFE
    Частота : 48,0 КГц
    Битовая глубина : 16 бит
    Метод сжатия : С потерями
    Размер потока : 289 Мбайт (19%)
    Выравнивание : Разделение по промежуткам
    Продолжительность промежутка : 42 мс. (1,00 видеокадр)
    Время предзагрузки промежутка : 500 мс.
    Заголовок : Dub

    Скриншоты


    Скачать .torrent

    Скачать торрент-файл бесплатно и на максимальной скорости!

    Как скачивать? · Что такое торрент? · Рейтинг и ограничения

    !ВНИМАНИЕ!
    Сайт не распространяет и не хранит электронные версии произведений, а занимается лишь лишь предоставлением доступа к создаваемому пользователями каталогу ссылок на торрент-файлы, которые содержат только списки хеш-сумм, убедительная просьба с жалобами обращаться напрямую к пользователю. Файлы для обмена на трекере предоставлены пользователями сайта, и администрация не несёт ответственности за их содержание. Просьба не заливать файлы, защищенные авторскими правами, а также файлы нелегального содержания!


    _________________
    [Профиль] [ЛС]
    Показать сообщения:    
    Ответить на тему

    Текущее время: Сегодня, в 21:31

    Часовой пояс: GMT + 2



    Вы не можете начинать темы
    Вы не можете отвечать на сообщения
    Вы не можете редактировать свои сообщения
    Вы не можете удалять свои сообщения
    Вы не можете голосовать в опросах
    Вы не можете прикреплять файлы к сообщениям
    Вы не можете скачивать файлы