BitTorrentTracker PerecTracker.org
BitTorrentTracker PerecTracker.org
    
Регистрация  ·  Вход
 
 · 
Забыли пароль?

  • Собеседование / Entretien D\'embauche / Entretien De(m)bauche (Николас Новак / Nicolas Novak) [2014, Франция, комедия абсурда, бурлеск, короткий метр, DVB] Original (Fre) + Sub (Rus, Eng, Fre, Deu)

    Ответить на тему
     
    Автор Сообщение

    rechyn

    Создавать темы 05-Фев-2016 22:27

           

    [Цитировать]

    Собеседование
    Entretien D'embauche-Страна: Франция
    Жанр: комедия абсурда, бурлеск, короткий метр
    Год выпуска: 2014
    Продолжительность: 00:14:30Перевод: Субтитры (русский перевод М.Лабори, Éclair Media)
    Cубтитры: русские, английские, французские, немецкие, нидерландские, румынские
    Оригинальная аудиодорожка: французский
    Режиссер: Николас Новак / Nicolas Novak
    В ролях: Бенжамен Ванжерме / Benjamin Wangermée (Kevin), Жозеф Эрнандес / Joseph Hernandez (Roger), Изабель Кот Вийемс / Isabelle Côte Willems (Mireille)
    Описание: Краудфандинговый проект - фильм снят на средства, собранные через интернет. Бюджет фильма 2'800 евро. Он рассказывает о неожиданном ходе собеседования при приеме на работу…
    Доп. информация: Hot Bird (13.0°E) TV5MONDE Europe DVB-S
    Награды: приз зрительских симпатий фестиваля "Лучше смеяться, чем кричать / Mieux vaut en rire qu’en pleurer" à Choisy-le-Roi 2014; 2-й приз Festival Armoricourt - Festival de courts-métrages basé à Plestin-les-Grèves 2014.

    Качество видео: DVB
    Формат видео: TS
    Видео: MPEG Video 2, 720x576@1024x576 (16:9), 25 fps, ~3191 kbps avg, 0.308 bit/pixel
    Аудио: MPEG Audio 2, 2 ch, 48 kHz, 192 kbps - французский
    Формат субтитров: PGS

    MediaInfo

    ОбщееИдентификатор : 1 (0x1)Полное имя : [apreder]MM_Entretien_d'embauche(2014)DVB.tsФормат : MPEG-TSРазмер файла : 370 МбайтПродолжительность : 14 м.Режим общего битрейта : ПеременныйОбщий поток : 3560 Кбит/секМаксимальный общий битрейт : 35,5 Мбит/сек
    ВидеоИдентификатор : 4113 (0x1011)Идентификатор меню : 1 (0x1)Формат : MPEG VideoВерсия формата : Version 2Профиль формата : Main@MainПараметр BVOP формата : ДаПараметр матрицы формата : ВыборочнаяПараметр GOP формата : VariableFormat_Settings_PictureStructure : FrameИдентификатор кодека : 2Продолжительность : 14 м.Вид битрейта : ПеременныйБитрейт : 3191 Кбит/секШирина : 720 пикселейВысота : 576 пикселейСоотношение сторон : 16:9Частота кадров : 25,000 кадров/секСтандарт вещания : PALЦветовое пространство : YUVСубдискретизация насыщенности : 4:2:0Битовая глубина : 8 битТип развёртки : ЧересстрочнаяПорядок развёртки : Верхнее поле первоеМетод сжатия : С потерямиБит/(Пиксели*Кадры) : 0.308Временной код первого кадра : 00:00:00:00Оригинал временного кода : Group of pictures headerРазмер потока : 331 Мбайт (90%)
    АудиоИдентификатор : 4352 (0x1100)Идентификатор меню : 1 (0x1)Формат : MPEG AudioВерсия формата : Version 1Профиль формата : Layer 2Режим : Joint stereoРасширение режима : Intensity Stereo + MS StereoИдентификатор кодека : 4Продолжительность : 14 м.Вид битрейта : ПостоянныйБитрейт : 192 Кбит/секКаналы : 2 каналаЧастота : 48,0 КГцМетод сжатия : С потерямиРазмер потока : 19,9 Мбайт (5%)Язык : French
    Текст #1Идентификатор : 4608 (0x1200)Идентификатор меню : 1 (0x1)Формат : PGSИдентификатор кодека : 144Язык : Russian
    Текст #2Идентификатор : 4609 (0x1201)Идентификатор меню : 1 (0x1)Формат : PGSИдентификатор кодека : 144Язык : English
    Текст #3Идентификатор : 4610 (0x1202)Идентификатор меню : 1 (0x1)Формат : PGSИдентификатор кодека : 144Язык : French
    Текст #4Идентификатор : 4611 (0x1203)Идентификатор меню : 1 (0x1)Формат : PGSИдентификатор кодека : 144Язык : German
    Текст #5Идентификатор : 4612 (0x1204)Идентификатор меню : 1 (0x1)Формат : PGSИдентификатор кодека : 144Язык : Dutch
    Текст #6Идентификатор : 4613 (0x1205)Идентификатор меню : 1 (0x1)Формат : PGSИдентификатор кодека : 144Язык : Romanian

    Скриншот c названием фильма

    Скриншоты

    Резервные скриншоты

    -[2'890]
    Скачать .torrent

    Скачать торрент-файл бесплатно и на максимальной скорости!

    Как скачивать? · Что такое торрент? · Рейтинг и ограничения

    !ВНИМАНИЕ!
    Сайт не распространяет и не хранит электронные версии произведений, а занимается лишь лишь предоставлением доступа к создаваемому пользователями каталогу ссылок на торрент-файлы, которые содержат только списки хеш-сумм, убедительная просьба с жалобами обращаться напрямую к пользователю. Файлы для обмена на трекере предоставлены пользователями сайта, и администрация не несёт ответственности за их содержание. Просьба не заливать файлы, защищенные авторскими правами, а также файлы нелегального содержания!


    _________________
    [Профиль] [ЛС]
    Показать сообщения:    
    Ответить на тему

    Текущее время: Сегодня, в 12:49

    Часовой пояс: GMT + 2



    Вы не можете начинать темы
    Вы не можете отвечать на сообщения
    Вы не можете редактировать свои сообщения
    Вы не можете удалять свои сообщения
    Вы не можете голосовать в опросах
    Вы не можете прикреплять файлы к сообщениям
    Вы не можете скачивать файлы