BitTorrentTracker PerecTracker.org
BitTorrentTracker PerecTracker.org
    
Регистрация  ·  Вход
 
 · 
Забыли пароль?

  • Прогулка / The Walk (Роберт Земекис / Robert Zemeckis) [2015, США, триллер, драма, приключения, биография, BDRip] Dub (СЕЕ) + Sub Rus, Eng, Ukr + Original Eng

    Ответить на тему
     
    Автор Сообщение

    rechyn

    Создавать темы 05-Фев-2016 09:51

           

    [Цитировать]

    --Прогулка / The Walk--«Every dream begins with a single step»-Страна: США
    Жанр: триллер, драма, приключения, биография
    Год выпуска: 2015
    Продолжительность: 02:03:11-Перевод: Профессиональный (дублированный) |CEE|
    Cубтитры: русские (полные, форсированные), английские (форсированные, обычные, SDH), украинские (полные, форсированные)
    Оригинальная аудиодорожка: английский-Режиссер: Роберт Земекис / Robert Zemeckis-В ролях: Джозеф Гордон-Левитт, Бен Кингсли, Стив Валентайн, Шарлотта Ле Бон, Джеймс Бэдж Дэйл, Бен Шварц, Бенедикт Сэмюэл, Мизинга Мвинга, Дэниэл Аррош, Джейсон Делайн, Серджо Ди Зио, Даррел Ли-Изард, Кент МакКвейд, Гийом Байяржон, Эмили Леклерк, Марк Траффорд, Инка Малович, Лукас Рамасьер, Мартин Лефевр, Филипп Бертран
    Описание: Вы боитесь высоты? А можете представить себя идущим по натянутому канату на высоте более 400м без всякой страховки? Потоки ветра обдувают вас, а внизу — город и тысячи взволнованных взглядов, устремленных вверх.
    История о том, как французский канатоходец Филипп Пети отважился совершить легендарный трюк — пройти без страховки по канату, натянутому между небоскребами в Нью-Йорке.-| Сэмпл | IMDB | КиноПоиск |

    Автор рипа: yaroslaigor-Качество видео: BDRip
    Формат видео: AVI
    Видео: 720x304 (2.37:1), 23.976 fps, XviD build 65 ~2082 kbps avg, 0.40 bit/pixel
    Аудио: 48 kHz, AC3 Dolby Digital, 3/2 (L,C,R,l,r) + LFE ch, ~448 kbps avg (RUS)
    Аудио 2: 48 kHz, AC3 Dolby Digital, 2/0 (L,R) ch, ~192 kbps avg (UKR) (отдельно, в составе раздачи)
    Аудио 3: 48 kHz, AC3 Dolby Digital, 3/2 (L,C,R,l,r) + LFE ch, ~448 kbps avg (ENG) (отдельно, в составе раздачи)
    Формат субтитров: softsub (SRT)

    MediaInfo

    General
    Полное имя : D:\MOVIES\Progulka.2015.RUS.BDRip.XviD.AC3.-HQCLUB\Progulka.2015.RUS.BDRip.XviD.AC3.-HQCLUB.avi
    Формат : AVI
    Формат/Информация : Audio Video Interleave
    Профиль формата : OpenDML
    Размер файла : 2.18 GiB
    Продолжительность : 2h 3mn
    Общий поток : 2 537 Kbps
    Название фильма : Прогулка / The Walk (2015) BDRip
    Жанр : драма, биография
    Программа кодирования : VirtualDubMod 1.5.10.2 (build 2542/release)
    Примечание : 04.02.2016
    Video
    Идентификатор : 0
    Формат : MPEG-4 Visual
    Профиль формата : Advanced Simple@L5
    Параметр BVOP формата : 1
    Параметр QPel формата : No
    Параметр GMC формата : No warppoints
    Параметр матрицы формата : Custom
    Идентификатор кодека : XVID
    Идентификатор кодека/Подсказка : XviD
    Продолжительность : 2h 3mn
    Битрейт : 2 077 Kbps
    Ширина : 720 pixels
    Высота : 304 pixels
    Соотношение сторон : 2.35:1
    Частота кадров : 23.976 fps
    Цветовое пространство : YUV
    Субдискретизация насыщенности : 4:2:0
    Битовая глубина : 8 bits
    Тип развёртки : Progressive
    Метод сжатия : Lossy
    Бит/(Пиксели*Кадры) : 0.396
    Размер потока : 1.79 GiB (82%)
    Библиотека кодирования : XviD 65
    Audio
    Идентификатор : 1
    Формат : AC-3
    Формат/Информация : Audio Coding 3
    Расширение режима : CM (complete main)
    Параметр Endianness формата : Big
    Идентификатор кодека : 2000
    Продолжительность : 2h 3mn
    Вид битрейта : Constant
    Битрейт : 448 Kbps
    Каналы : 6 channels
    Расположение каналов : Front: L C R, Side: L R, LFE
    Частота : 48.0 KHz
    Метод сжатия : Lossy
    Размер потока : 395 MiB (18%)
    Выравнивание : Split accross interleaves
    Продолжительность промежутка : 42 ms (1.00 video frame)
    Время предзагрузки промежутка : 500 ms

    Скриншот c названием фильма

    Скриншоты

    Скачать .torrent

    Скачать торрент-файл бесплатно и на максимальной скорости!

    Как скачивать? · Что такое торрент? · Рейтинг и ограничения

    !ВНИМАНИЕ!
    Сайт не распространяет и не хранит электронные версии произведений, а занимается лишь лишь предоставлением доступа к создаваемому пользователями каталогу ссылок на торрент-файлы, которые содержат только списки хеш-сумм, убедительная просьба с жалобами обращаться напрямую к пользователю. Файлы для обмена на трекере предоставлены пользователями сайта, и администрация не несёт ответственности за их содержание. Просьба не заливать файлы, защищенные авторскими правами, а также файлы нелегального содержания!


    _________________
    [Профиль] [ЛС]
    Показать сообщения:    
    Ответить на тему

    Текущее время: Сегодня, в 00:18

    Часовой пояс: GMT + 2



    Вы не можете начинать темы
    Вы не можете отвечать на сообщения
    Вы не можете редактировать свои сообщения
    Вы не можете удалять свои сообщения
    Вы не можете голосовать в опросах
    Вы не можете прикреплять файлы к сообщениям
    Вы не можете скачивать файлы