BitTorrentTracker PerecTracker.org
BitTorrentTracker PerecTracker.org
    
Регистрация  ·  Вход
 
 · 
Забыли пароль?

  • Шпионский мост / Bridge of Spies (Стивен Спилберг / Steven Spielberg ) [2015, США, Германия, Индия , Триллер, драма, биография, BDRip, HD (720p)] DUB + Original + sub (rus, ukr, eng)

    Ответить на тему
     
    Автор Сообщение

    Flirldrerve

    Создавать темы 05-Фев-2016 01:27

           

    [Цитировать]

    Шпионский мост / Bridge of Spies
    «Когда мир на грани войны, лишь честь одного человека может предотвратить катастрофу»
    7.592 / 10 7.70 / 10
    -Год выпуска: 2015
    Страна: США, Германия, Индия
    Жанр: Триллер, драма, биография
    Продолжительность: 02:21:21
    Перевод: Дублированный (iTunes)
    Оригинальная аудиодорожка: Есть
    Cубтитры: Русские форсированные, Украинские форсированные, Русские, Украинские, Английские, Английские SDH
    Режиссёр: Стивен Спилберг
    Сценарий: Мэтт Чарман, Итан Коэн, Джоэл Коэн
    Продюсер: Кристи Макоско Кригер, Марк Э. Платт, Стивен Спилберг
    Оператор: Януш Камински
    Композитор: Томас Ньюман
    Художник: Адам Штокхаузен, Марко Биттнер Россер, Скотт Дуган
    Монтаж: Майкл Кан
    В ролях: Том Хэнкс, Марк Райлэнс, Эми Райан, Алан Алда, Остин Стоуэлл, Скотт Шеперд, Джесси Племонс, Доменик Ломбардоззи, Себастьян Кох, Ив Хьюсон
    Бюджет: $40 000 000
    Сборы в США: $71 884 220
    Сборы в мире: + $90 387 482 = $162 271 702
    Сборы в России: $2 027 133
    Мировая премьера: 4 октября 2015
    Премьера (РФ): 3 декабря 2015, «Двадцатый Век Фокс СНГ»
    Описание: Действие фильма происходит на фоне серии реальных исторических событий и рассказывает о бруклинском адвокате Джеймсе Доноване, который оказывается в эпицентре холодной войны, когда ЦРУ отправляет его на практически невозможное задание — договориться об освобождении захваченного в СССР американского пилота самолета-разведчика U2.-Качество исходника: BDRemux (HDClub)
    Качество: BDRip
    Тип: HD (720p)
    Контейнер: M4V
    Видео: H.264, 1280x536, 2.40:1, 3 500 Kbps, 23.976 (24000/1001) fps
    Аудио 1: Русский/Дублированный (iTunes), AAC / 2.0 / 156 Kbps / 48.0 KHz
    Аудио 2: Английский/Оригинальная дорожка , AAC / 2.0 / 157 Kbps / 48.0 KHz
    Аудио 3: Русский/Дублированный (iTunes), AC-3 / 5.1 / 384 Kbps / 48.0 KHz
    Аудио 4: Английский/Оригинальная дорожка , AC-3 / 5.1 / 640 Kbps / 48.0 KHz
    Субтитры 1: Русские форсированные
    Субтитры 2: Украинские форсированные
    Субтитры 3: Русские полные
    Субтитры 4: Украинские полные
    Субтитры 5: Английские полные
    Субтитры 6: Английские SDH
    -

    iTunes Meta Tags

    Sort Name: Bridge of Spies
    XID: Apple:vendor_id:2015-840884
    contentID: 1046176722
    Copyright: © 2015 DreamWorks
    Screenwriters: Мэтт Чарман, Итан Коэн, Джоэл Коэн
    Producers: Кристи Макоско Кригер, Марк Э. Платт, Стивен Спилберг
    Director: Стивен Спилберг
    Cast: Том Хэнкс, Марк Райлэнс, Эми Райан, Алан Алда, Остин Стоуэлл, Скотт Шеперд, Джесси Племонс, Доменик Ломбардоззи, Себастьян Кох, Ив Хьюсон
    Studio: DreamWorks
    Rating Annotation: Rated PG-13 for some violence and brief strong language.
    Rating: 4
    Long Description: Действие фильма происходит на фоне серии реальных исторических событий и рассказывает о бруклинском адвокате Джеймсе Доноване, который оказывается в эпицентре холодной войны, когда ЦРУ отправляет его на практически невозможное задание - договориться об освобождении захваченного в СССР американского пилота самолета-разведчика U2.
    Description: Действие фильма происходит на фоне серии реальных исторических событий и рассказывает о бруклинском адвокате Джеймсе Доноване, который оказывается в эпицентре холодной войны, когда ЦРУ отправляет его на практически невозможное задание - договориться об освобождении захваченного в СССР американского пилота самолета-разведчика U2.
    Release Date: 2015-10-04T08:00:00Z
    Genre: Drama
    Artist: Steven Spielberg
    Name: Bridge of Spies

    MediaInfo

    General
    Complete name : /Users/imac/HandBrake/Bridge of Spies (720p HD).m4v
    Format : MPEG-4
    Codec ID : M4V  (M4V /M4A /mp42/isom)
    File size : 4.78 GiB
    Duration : 2h 21mn
    Overall bit rate mode : Variable
    Overall bit rate : 4 842 Kbps
    Movie name : Bridge of Spies
    Performer : Steven Spielberg
    Director : Стивен Спилберг
    Actor : Том Хэнкс / Марк Райлэнс / Эми Райан / Алан Алда / Остин Стоуэлл / Скотт Шеперд / Джесси Племонс / Доменик Ломбардоззи / Себастьян Кох / Ив Хьюсон
    Screenplay by : Мэтт Чарман / Итан Коэн / Джоэл Коэн
    Producer : Кристи Макоско Кригер / Марк Э. Платт / Стивен Спилберг
    Production studio : DreamWorks
    Genre : Drama
    ContentType : Short Film
    Description : Действие фильма происходит на фоне серии реальных исторических событий и рассказывает о бруклинском адвокате Джеймсе Доноване, который оказывается в эпицентре холодной войны, когда ЦРУ отправляет его на практически невозможное задание - договориться об освобождении захваченного в СССР американского пилота самолета-разведчика U2.
    Recorded date : UTC 2015-10-04 08:00:00
    Encoded date : UTC 2016-02-04 19:59:17
    Tagged date : UTC 2016-02-04 20:01:07
    Copyright : © 2015 DreamWorks
    Cover : Yes
    Rating : None
    Title/Sort : Bridge of Spies
    LongDescription : Действие фильма происходит на фоне серии реальных исторических событий и рассказывает о бруклинском адвокате Джеймсе Доноване, который оказывается в эпицентре холодной войны, когда ЦРУ отправляет его на практически невозможное задание - договориться об освобождении захваченного в СССР американского пилота самолета-разведчика U2.
    HDVideo : Yes
    AppleStoreCatalogID : 1046176722
    Vendor : Apple:vendor_id:2015-840884
    ContentRating : mpaa|PG-13|300|Rated PG-13 for some violence and brief strong language.
    Video #1
    ID : 1
    Format : AVC
    Format/Info : Advanced Video Codec
    Format profile : High@L3.1
    Format settings, CABAC : No
    Format settings, ReFrames : 3 frames
    Codec ID : avc1
    Codec ID/Info : Advanced Video Coding
    Duration : 2h 21mn
    Source duration : 2h 21mn
    Bit rate : 3 500 Kbps
    Width : 1 280 pixels
    Height : 536 pixels
    Display aspect ratio : 2.40:1
    Frame rate mode : Variable
    Frame rate : 23.976 (24000/1001) fps
    Minimum frame rate : 23.974 fps
    Maximum frame rate : 23.981 fps
    Color space : YUV
    Chroma subsampling : 4:2:0
    Bit depth : 8 bits
    Scan type : Progressive
    Bits/(Pixel*Frame) : 0.213
    Stream size : 3.45 GiB (72%)
    Source stream size : 3.45 GiB (72%)
    Title : Main Program
    Writing library : x264 core 142 r2479 dd79a61
    Encoding settings : cabac=0 / ref=3 / deblock=1:-3:-3 / analyse=0x3:0x113 / me=umh / subme=9 / psy=1 / psy_rd=1.00:0.15 / mixed_ref=1 / me_range=32 / chroma_me=1 / trellis=0 / 8x8dct=1 / cqm=0 / deadzone=21,11 / fast_pskip=0 / chroma_qp_offset=-2 / threads=36 / lookahead_threads=3 / sliced_threads=0 / nr=0 / decimate=0 / interlaced=0 / bluray_compat=0 / constrained_intra=0 / bframes=3 / b_pyramid=0 / b_adapt=2 / b_bias=0 / direct=1 / weightb=0 / open_gop=0 / weightp=0 / keyint=240 / keyint_min=24 / scenecut=40 / intra_refresh=0 / rc_lookahead=40 / rc=2pass / mbtree=1 / bitrate=3500 / ratetol=1.0 / qcomp=0.65 / qpmin=0 / qpmax=69 / qpstep=4 / cplxblur=20.0 / qblur=0.5 / vbv_maxrate=9500 / vbv_bufsize=9500 / nal_hrd=none / filler=0 / ip_ratio=1.40 / aq=1:1.10
    Language : English
    Encoded date : UTC 2016-02-04 19:59:17
    Tagged date : UTC 2016-02-04 19:59:24
    Color range : Limited
    Color primaries : BT.709
    Transfer characteristics : BT.709
    Matrix coefficients : BT.709
    Menus : 12,13
    Video #2
    ID : 13
    Format : JPEG
    Codec ID : jpeg
    Duration : 2h 21mn
    Bit rate mode : Variable
    Bit rate : 465 bps
    Width : 640 pixels
    Height : 268 pixels
    Display aspect ratio : 2.40:1
    Frame rate mode : Variable
    Frame rate : 0.002 fps
    Minimum frame rate : 0.001 fps
    Maximum frame rate : 0.005 fps
    Color space : YUV
    Chroma subsampling : 4:2:0
    Bit depth : 8 bits
    Compression mode : Lossy
    Bits/(Pixel*Frame) : 1.356
    Stream size : 482 KiB (0%)
    Title : Chapter Images
    Language : English
    Default : No
    Encoded date : UTC 2016-02-04 20:00:12
    Tagged date : UTC 2016-02-04 20:00:12
    Menu For : 1
    Audio #1
    ID : 2
    Format : AAC
    Format/Info : Advanced Audio Codec
    Format profile : LC
    Codec ID : 40
    Duration : 2h 21mn
    Bit rate mode : Variable
    Bit rate : 156 Kbps
    Maximum bit rate : 230 Kbps
    Channel(s) : 2 channels
    Channel positions : Front: L R
    Sampling rate : 48.0 KHz
    Frame rate : 46.875 fps (1024 spf)
    Compression mode : Lossy
    Stream size : 158 MiB (3%)
    Title : Russian Stereo
    Language : Russian
    Default : Yes
    Alternate group : 1
    Encoded date : UTC 2016-02-04 19:59:17
    Tagged date : UTC 2016-02-04 20:00:08
    Fallback From : 4
    Subtitles : 6,8
    Audio #2
    ID : 3
    Format : AAC
    Format/Info : Advanced Audio Codec
    Format profile : LC
    Codec ID : 40
    Duration : 2h 21mn
    Bit rate mode : Variable
    Bit rate : 157 Kbps
    Maximum bit rate : 244 Kbps
    Channel(s) : 2 channels
    Channel positions : Front: L R
    Sampling rate : 48.0 KHz
    Frame rate : 46.875 fps (1024 spf)
    Compression mode : Lossy
    Stream size : 159 MiB (3%)
    Title : English Stereo
    Language : English
    Default : No
    Alternate group : 1
    Encoded date : UTC 2016-02-04 19:59:17
    Tagged date : UTC 2016-02-04 20:00:08
    Fallback From : 5
    Audio #3
    ID : 4
    Format : AC-3
    Format/Info : Audio Coding 3
    Mode extension : CM (complete main)
    Format settings, Endianness : Big
    Codec ID : ac-3
    Duration : 2h 21mn
    Bit rate mode : Constant
    Bit rate : 384 Kbps
    Channel(s) : 6 channels
    Channel positions : Front: L C R, Side: L R, LFE
    Sampling rate : 48.0 KHz
    Frame rate : 31.250 fps (1536 spf)
    Bit depth : 16 bits
    Compression mode : Lossy
    Stream size : 388 MiB (8%)
    Title : Russian DD 5.1
    Language : Russian
    Default : Inherited From: 2
    Alternate group : 1
    Encoded date : UTC 2016-02-04 19:59:17
    Tagged date : UTC 2016-02-04 20:00:08
    Fallback To : 2
    Subtitles : 6,8
    Audio #4
    ID : 5
    Format : AC-3
    Format/Info : Audio Coding 3
    Mode extension : CM (complete main)
    Format settings, Endianness : Big
    Codec ID : ac-3
    Duration : 2h 21mn
    Bit rate mode : Constant
    Bit rate : 640 Kbps
    Channel(s) : 6 channels
    Channel positions : Front: L C R, Side: L R, LFE
    Sampling rate : 48.0 KHz
    Frame rate : 31.250 fps (1536 spf)
    Bit depth : 16 bits
    Compression mode : Lossy
    Stream size : 647 MiB (13%)
    Title : English DD 5.1
    Language : English
    Default : No
    Alternate group : 1
    Encoded date : UTC 2016-02-04 19:59:17
    Tagged date : UTC 2016-02-04 20:00:08
    Fallback To : 3
    Text #1
    ID : 6
    Format : Timed Text
    Muxing mode : sbtl
    Codec ID : tx3g
    Duration : 2h 21mn
    Bit rate mode : Variable
    Bit rate : 2 bps
    Stream size : 2.05 KiB (0%)
    Title : Russian forced
    Language : Russian
    Default : Yes
    Forced : Yes
    Alternate group : 2
    Encoded date : UTC 2016-02-04 19:59:17
    Tagged date : UTC 2016-02-04 20:00:06
    Subtitles For : 2,4
    Full Alternative : 8
    Text #2
    ID : 7
    Format : Timed Text
    Muxing mode : sbtl
    Codec ID : tx3g
    Duration : 2h 21mn
    Bit rate mode : Variable
    Bit rate : 2 bps
    Stream size : 1.97 KiB (0%)
    Title : Ukrainian forced
    Language : Ukrainian
    Default : No
    Forced : Yes
    Alternate group : 2
    Encoded date : UTC 2016-02-04 19:59:17
    Tagged date : UTC 2016-02-04 20:00:08
    Text #3
    ID : 8
    Format : Timed Text
    Muxing mode : sbtl
    Codec ID : tx3g
    Duration : 2h 21mn
    Bit rate mode : Variable
    Bit rate : 103 bps
    Stream size : 106 KiB (0%)
    Title : Russian full
    Language : Russian
    Default : No
    Forced : No
    Alternate group : 2
    Encoded date : UTC 2016-02-04 19:59:17
    Tagged date : UTC 2016-02-04 20:00:06
    Subtitles For : 2,4
    Forced Alternative : 6
    Text #4
    ID : 9
    Format : Timed Text
    Muxing mode : sbtl
    Codec ID : tx3g
    Duration : 2h 21mn
    Bit rate mode : Variable
    Bit rate : 97 bps
    Stream size : 100 KiB (0%)
    Title : Ukrainian full
    Language : Ukrainian
    Default : No
    Forced : No
    Alternate group : 2
    Encoded date : UTC 2016-02-04 19:59:17
    Tagged date : UTC 2016-02-04 20:00:06
    Forced Alternative : 9
    Text #5
    ID : 10
    Format : Timed Text
    Muxing mode : sbtl
    Codec ID : tx3g
    Duration : 2h 11mn
    Bit rate mode : Variable
    Bit rate : 77 bps
    Stream size : 73.7 KiB (0%)
    Title : English full
    Language : English
    Default : No
    Forced : No
    Alternate group : 2
    Encoded date : UTC 2016-02-04 19:59:17
    Tagged date : UTC 2016-02-04 20:00:05
    Text #6
    ID : 11
    Format : Timed Text
    Muxing mode : sbtl
    Codec ID : tx3g
    Duration : 2h 11mn
    Bit rate mode : Variable
    Bit rate : 84 bps
    Stream size : 80.4 KiB (0%)
    Title : English SDH
    Language : English
    Default : No
    Forced : No
    Alternate group : 2
    Encoded date : UTC 2016-02-04 19:59:17
    Tagged date : UTC 2016-02-04 20:00:05
    Menu #1
    00:00:00.000 : Chapter 1
    00:10:29.295 : Chapter 2
    00:17:46.565 : Chapter 3
    00:22:09.912 : Chapter 4
    00:25:27.985 : Chapter 5
    00:31:17.375 : Chapter 6
    00:37:45.805 : Chapter 7
    00:45:29.352 : Chapter 8
    00:52:36.779 : Chapter 9
    01:00:38.635 : Chapter 10
    01:07:17.951 : Chapter 11
    01:16:52.483 : Chapter 12
    01:33:55.755 : Chapter 13
    01:45:41.835 : Chapter 14
    01:56:31.276 : Chapter 15
    02:07:20.633 : Chapter 16
    02:14:18.133 : Chapter 17
    Menu #2
    ID : 12
    Codec ID : text
    Duration : 2h 21mn
    Language : English
    Encoded date : UTC 2016-02-04 20:00:08
    Tagged date : UTC 2016-02-04 20:00:08
    Menu For : 1
    00:00:00.000 : Chapter 1
    00:10:29.295 : Chapter 2
    00:17:46.565 : Chapter 3
    00:22:09.912 : Chapter 4
    00:25:27.985 : Chapter 5
    00:31:17.375 : Chapter 6
    00:37:45.805 : Chapter 7
    00:45:29.352 : Chapter 8
    00:52:36.779 : Chapter 9
    01:00:38.635 : Chapter 10
    01:07:17.951 : Chapter 11
    01:16:52.483 : Chapter 12
    01:33:55.755 : Chapter 13
    01:45:41.835 : Chapter 14
    01:56:31.276 : Chapter 15
    02:07:20.633 : Chapter 16
    02:14:18.133 : Chapter 17
    Bit rate mode : VBR

    x264 лог

    x264 [info]: frame I:1375  Avg QP:15.26  size: 97419
    x264 [info]: frame P:68346 Avg QP:17.48  size: 33421
    x264 [info]: frame B:133587 Avg QP:19.74  size:  9638
    x264 [info]: consecutive B-frames:  2.4% 19.8% 30.0% 47.7%
    x264 [info]: mb I  I16..4:  9.2% 57.2% 33.6%
    x264 [info]: mb P  I16..4:  1.1%  5.2%  2.1%  P16..4: 44.5% 27.1% 11.5%  0.0%  0.0%    skip: 8.4%
    x264 [info]: mb B  I16..4:  0.1%  0.8%  0.2%  B16..8: 47.6%  9.8%  1.7%  direct: 3.7%  skip:36.1%  L0:41.3% L1:51.9% BI: 6.9%
    x264 [info]: 8x8 transform intra:62.9% inter:42.9%
    x264 [info]: coded y,uvDC,uvAC intra: 86.7% 71.8% 43.0% inter: 26.3% 14.8% 6.4%
    x264 [info]: i16 v,h,dc,p: 47% 14%  8% 31%
    x264 [info]: i8 v,h,dc,ddl,ddr,vr,hd,vl,hu: 13%  7%  6% 11% 15% 14% 13% 11% 10%
    x264 [info]: i4 v,h,dc,ddl,ddr,vr,hd,vl,hu: 12%  7%  3% 12% 16% 16% 14% 11%  9%
    x264 [info]: i8c dc,h,v,p: 52% 18% 21%  9%
    x264 [info]: ref P L0: 68.9% 18.4% 12.7%
    x264 [info]: ref B L0: 77.4% 22.6%
    x264 [info]: kb/s:3496.07

    Скриншоты

    -

    Релиз подготовлен для просмотра на Apple TV, iPad, iPhone, iPod Touch.
    Для просмотра данного релиза на компьютере с ОС Windows рекомендуется использовать VLC media player
    Скачать .torrent

    Скачать торрент-файл бесплатно и на максимальной скорости!

    Как скачивать? · Что такое торрент? · Рейтинг и ограничения

    !ВНИМАНИЕ!
    Сайт не распространяет и не хранит электронные версии произведений, а занимается лишь лишь предоставлением доступа к создаваемому пользователями каталогу ссылок на торрент-файлы, которые содержат только списки хеш-сумм, убедительная просьба с жалобами обращаться напрямую к пользователю. Файлы для обмена на трекере предоставлены пользователями сайта, и администрация не несёт ответственности за их содержание. Просьба не заливать файлы, защищенные авторскими правами, а также файлы нелегального содержания!


    _________________
    [Профиль] [ЛС]
    Показать сообщения:    
    Ответить на тему

    Текущее время: Сегодня, в 02:33

    Часовой пояс: GMT + 2



    Вы не можете начинать темы
    Вы не можете отвечать на сообщения
    Вы не можете редактировать свои сообщения
    Вы не можете удалять свои сообщения
    Вы не можете голосовать в опросах
    Вы не можете прикреплять файлы к сообщениям
    Вы не можете скачивать файлы