BitTorrentTracker PerecTracker.org
BitTorrentTracker PerecTracker.org
    
Регистрация  ·  Вход
 
 · 
Забыли пароль?

  • Ловушка / The Resident (Антти Джокинен / Antti Jokinen) [2011, Великобритания, США, Триллер, Драма, HDRip] MVO + Sub Rus, Eng + Original Eng

    Ответить на тему
     
    Автор Сообщение

    rechyn

    Создавать темы 05-Фев-2016 01:27

           

    [Цитировать]

    -Ловушка / The Resident
    «Твой дом - его крепость»--Страна: Великобритания, США
    Жанр: Триллер, Драма
    Год выпуска: 2011
    Продолжительность: 01:31:19-Перевод: Профессиональный (многоголосый закадровый)-Cубтитры: Русские, Английские
    Оригинальная аудиодорожка: Английская-Режиссер: Антти Джокинен / Antti Jokinen-В ролях: Джеффри Дин Морган, Хилари Суэнк, Кристофер Ли, Ли Пейс, Майкл Масси, Онжаню Эллис, Кейша Олсен, Пенни Бальфур, Александрия Морроу, Сэнди К Шелби-Описание: Миллионы одиноких женщин снимают квартиры. Они не задумываются о том, кто жил там до них. Они не знают хозяев. Им не приходит в голову сменить замок. Расставшись с мужем, молодая врач Джульет Дермер начинает новую жизнь в просторном съемном лофте. Недорогая квартира оказывается настолько хороша, что Джулия не может поверить своему счастью. Вскоре, однако, она начинает подозревать, что не одна в собственном доме. С ужасом она осознает, что симпатичный домовладелец Макс избрал ее для своей маниакальной игры в кошки-мышки.---Качество видео: HDRip
    Формат видео: AVI-Видео: XviD, 720x304 (2.35:1), 23.976 fps, ~1800 kbps avg, 0.34 bit/pixel
    Аудио 1: 48 kHz, AC3 Dolby Digital, 3/2 (L,C,R,l,r) + LFE ch, ~448 kbps avg
    Аудио 2: 48 kHz, AC3 Dolby Digital, 3/2 (L,C,R,l,r) + LFE ch, ~448 kbps avg (ENG)-

    MediaInfo

    Complete name : C:\Users\1\Desktop\РАЗДАЧИ\The Resident (2011) HDRip\The Resident (2011) HDRip.avi
    Format : AVI
    Format/Info : Audio Video Interleave
    File size : 1.45 GiB
    Duration : 1h 31mn
    Overall bit rate : 2 274 Kbps
    Video
    ID : 0
    Format : MPEG-4 Visual
    Format profile : Advanced Simple@L5
    Format settings, BVOP : 2
    Format settings, QPel : No
    Format settings, GMC : No warppoints
    Format settings, Matrix : Custom
    Codec ID : XVID
    Codec ID/Hint : XviD
    Duration : 1h 31mn
    Bit rate : 1 817 Kbps
    Width : 720 pixels
    Height : 304 pixels
    Display aspect ratio : 2.35:1
    Frame rate : 23.976 (24000/1001) fps
    Color space : YUV
    Chroma subsampling : 4:2:0
    Bit depth : 8 bits
    Scan type : Progressive
    Compression mode : Lossy
    Bits/(Pixel*Frame) : 0.346
    Stream size : 1.16 GiB (80%)
    Writing library : XviD 64
    Audio
    ID : 1
    Format : AC-3
    Format/Info : Audio Coding 3
    Mode extension : CM (complete main)
    Format settings, Endianness : Big
    Codec ID : 2000
    Duration : 1h 31mn
    Bit rate mode : Constant
    Bit rate : 448 Kbps
    Channel(s) : 6 channels
    Channel positions : Front: L C R, Side: L R, LFE
    Sampling rate : 48.0 KHz
    Frame rate : 31.250 fps (1536 spf)
    Compression mode : Lossy
    Stream size : 293 MiB (20%)
    Alignment : Split accross interleaves
    Interleave, duration : 42 ms (1.00 video frame)
    Interleave, preload duratio : 500 ms

    Скриншот c названием фильма

    Скриншоты

    Скачать .torrent

    Скачать торрент-файл бесплатно и на максимальной скорости!

    Как скачивать? · Что такое торрент? · Рейтинг и ограничения

    !ВНИМАНИЕ!
    Сайт не распространяет и не хранит электронные версии произведений, а занимается лишь лишь предоставлением доступа к создаваемому пользователями каталогу ссылок на торрент-файлы, которые содержат только списки хеш-сумм, убедительная просьба с жалобами обращаться напрямую к пользователю. Файлы для обмена на трекере предоставлены пользователями сайта, и администрация не несёт ответственности за их содержание. Просьба не заливать файлы, защищенные авторскими правами, а также файлы нелегального содержания!


    _________________
    [Профиль] [ЛС]
    Показать сообщения:    
    Ответить на тему

    Текущее время: Сегодня, в 18:27

    Часовой пояс: GMT + 2



    Вы не можете начинать темы
    Вы не можете отвечать на сообщения
    Вы не можете редактировать свои сообщения
    Вы не можете удалять свои сообщения
    Вы не можете голосовать в опросах
    Вы не можете прикреплять файлы к сообщениям
    Вы не можете скачивать файлы