BitTorrentTracker PerecTracker.org
BitTorrentTracker PerecTracker.org
    
Регистрация  ·  Вход
 
 · 
Забыли пароль?

  • Преступная Деятельность / Criminal Activities (Джеки Эрл Хейли / Jackie Earle Haley) [2015, США, триллер, драма, криминал, BDRip-AVC] MVO + Original (Eng) + Sub (Eng)

    Ответить на тему
     
    Автор Сообщение

    rechyn

    Создавать темы 05-Фев-2016 01:27

           

    [Цитировать]

    Преступная Деятельность / Criminal ActivitiesСтрана: США
    Жанр: триллер, драма, криминал
    Год выпуска: 2015
    Продолжительность: 01:33:56
    Перевод: Профессиональный (многоголосый закадровый) | IdeaFilm
    Cубтитры: английские
    Оригинальная аудиодорожка: английский
    Режиссер: Джеки Эрл Хейли / Jackie Earle Haley
    В ролях: Дэн Стивенс, Джон Траволта, Джеки Эрл Хейли, Майкл Питт, Эди Гатеги, Кристофер Эбботт, Роб Браун, Лиза Катара, Трэвис Аарон, Морган Волк
    Описание: Четверо молодых людей инвестировали деньги в рискованное дело, которое приводит их к конфликту с мафией

    Исходник: Criminal Activities 2015 1080p Blu-ray Remux AVC DTS-HD MA 5.1 - KRaLiMaRKo
    Качество видео: BDRip-AVC | | sample
    Формат видео: MKV
    Видео кодек: x264
    Видео: AVC 1152x480 (2.40:1), 23.976 fps, ~2600 Kbps, 0.19 bit/pixel
    Аудио #1: Russian AC3 6ch 48kHz 384Kbps | MVO IdeaFilm
    Аудио #2: English AC3 6ch 48kHz 448Kbps | Original
    Формат субтитров: softsub (SRT)
    Главы: есть

    MediaInfo | x264

    x264

    --[Information] [01.02.2016 9:24:30] x264 [info]: frame I:1164 Avg QP:13.21 size: 77205
    --[Information] [01.02.2016 9:24:30] x264 [info]: frame P:25384 Avg QP:15.21 size: 25104
    --[Information] [01.02.2016 9:24:30] x264 [info]: frame B:108570 Avg QP:16.45 size: 10111
    --[Information] [01.02.2016 9:24:30] x264 [info]: consecutive B-frames: 1.5% 1.2% 4.9% 13.4% 15.5% 43.0% 7.2% 1.8% 2.4% 3.9% 1.5% 0.9% 1.0% 1.1% 0.5%
    --[Information] [01.02.2016 9:24:30] x264 [info]: kb/s:2590.41
    General
    Complete name : D:\...\Criminal.Activities.2015.BDRip.x264.DD5.1.Rus.MVO.Eng-E76.mkv
    Format : Matroska
    Format version : Version 2
    File size : 2.25 GiB
    Duration : 1h 33mn
    Overall bit rate : 3 425 Kbps
    Movie name : Criminal.Activities.2015.BDRip.x264.DD5.1.Rus.MVO.Eng-E76
    Encoded date : UTC 2016-02-04 19:33:33
    Writing application : mkvmerge v7.0.0 ('Where We Going') 64bit built on Jun 9 2014 15:16:27
    Writing library : libebml v1.3.0 + libmatroska v1.4.1
    Video
    ID : 1
    Format : AVC
    Format/Info : Advanced Video Codec
    Format profile : High@L4.1
    Format settings, CABAC : Yes
    Format settings, ReFrames : 12 frames
    Codec ID : V_MPEG4/ISO/AVC
    Duration : 1h 33mn
    Bit rate : 2 524 Kbps
    Width : 1 152 pixels
    Height : 480 pixels
    Display aspect ratio : 2.40:1
    Frame rate mode : Constant
    Frame rate : 23.976 fps
    Color space : YUV
    Chroma subsampling : 4:2:0
    Bit depth : 8 bits
    Scan type : Progressive
    Bits/(Pixel*Frame) : 0.190
    Stream size : 1.66 GiB (74%)
    Title : Criminal Activities (2015)
    Writing library : x264 core 148 r2665kMod a01e339
    Encoding settings : cabac=1 / ref=12 / deblock=1:-3:-3 / analyse=0x3:0x113 / me=umh / subme=11 / psy=1 / fade_compensate=0.00 / psy_rd=1.00:0.00 / mixed_ref=1 / me_range=48 / chroma_me=1 / trellis=2 / 8x8dct=1 / cqm=0 / deadzone=21,11 / fast_pskip=1 / chroma_qp_offset=-2 / threads=6 / lookahead_threads=1 / sliced_threads=0 / nr=0 / decimate=1 / interlaced=0 / bluray_compat=0 / constrained_intra=0 / fgo=0 / bframes=14 / b_pyramid=2 / b_adapt=2 / b_bias=0 / direct=1 / weightb=1 / open_gop=0 / weightp=2 / keyint=240 / keyint_min=23 / scenecut=40 / intra_refresh=0 / rc_lookahead=0 / rc=crf / mbtree=0 / crf=17.2500 / qcomp=0.60 / qpmin=0 / qpmax=69 / qpstep=4 / vbv_maxrate=62500 / vbv_bufsize=78125 / crf_max=0.0 / nal_hrd=none / filler=0 / ip_ratio=1.40 / pb_ratio=1.20 / aq=1:1.00 / zones=129220,135117,q=30
    Language : English
    Default : Yes
    Forced : No
    Color range : Limited
    Matrix coefficients : BT.709
    Audio #1
    ID : 2
    Format : AC-3
    Format/Info : Audio Coding 3
    Mode extension : CM (complete main)
    Format settings, Endianness : Big
    Codec ID : A_AC3
    Duration : 1h 33mn
    Bit rate mode : Constant
    Bit rate : 384 Kbps
    Channel(s) : 6 channels
    Channel positions : Front: L C R, Side: L R, LFE
    Sampling rate : 48.0 KHz
    Compression mode : Lossy
    Stream size : 258 MiB (11%)
    Title : MVO IdeaFilm
    Language : Russian
    Default : Yes
    Forced : No
    Audio #2
    ID : 3
    Format : AC-3
    Format/Info : Audio Coding 3
    Mode extension : CM (complete main)
    Format settings, Endianness : Big
    Codec ID : A_AC3
    Duration : 1h 33mn
    Bit rate mode : Constant
    Bit rate : 448 Kbps
    Channel(s) : 6 channels
    Channel positions : Front: L C R, Side: L R, LFE
    Sampling rate : 48.0 KHz
    Compression mode : Lossy
    Stream size : 301 MiB (13%)
    Title : Original
    Language : English
    Default : No
    Forced : No
    Text #1
    ID : 4
    Format : UTF-8
    Codec ID : S_TEXT/UTF8
    Codec ID/Info : UTF-8 Plain Text
    Language : English
    Default : No
    Forced : No
    Text #2
    ID : 5
    Format : UTF-8
    Codec ID : S_TEXT/UTF8
    Codec ID/Info : UTF-8 Plain Text
    Title : SDH
    Language : English
    Default : No
    Forced : No
    Menu
    00:00:00.000 : 00:00:00.000
    00:10:20.078 : 00:10:20.078
    ...
    01:29:45.297 : 01:29:45.297

    Скриншоты



    vs source
    => Новые релизы в AVC | | Заказ рипов в AVC <=
    Скачать .torrent

    Скачать торрент-файл бесплатно и на максимальной скорости!

    Как скачивать? · Что такое торрент? · Рейтинг и ограничения

    !ВНИМАНИЕ!
    Сайт не распространяет и не хранит электронные версии произведений, а занимается лишь лишь предоставлением доступа к создаваемому пользователями каталогу ссылок на торрент-файлы, которые содержат только списки хеш-сумм, убедительная просьба с жалобами обращаться напрямую к пользователю. Файлы для обмена на трекере предоставлены пользователями сайта, и администрация не несёт ответственности за их содержание. Просьба не заливать файлы, защищенные авторскими правами, а также файлы нелегального содержания!


    _________________
    [Профиль] [ЛС]
    Показать сообщения:    
    Ответить на тему

    Текущее время: Сегодня, в 01:05

    Часовой пояс: GMT + 2



    Вы не можете начинать темы
    Вы не можете отвечать на сообщения
    Вы не можете редактировать свои сообщения
    Вы не можете удалять свои сообщения
    Вы не можете голосовать в опросах
    Вы не можете прикреплять файлы к сообщениям
    Вы не можете скачивать файлы