BitTorrentTracker PerecTracker.org
BitTorrentTracker PerecTracker.org
    
Регистрация  ·  Вход
 
 · 
Забыли пароль?

  • Охотник / Серии: 1-8 из 8 (Владимир Котт) [2006 г., боевик, исторический фильм, мистика, приключения, DVDRip]

    Ответить на тему
     
    Автор Сообщение

    rechyn

    Создавать темы 04-Фев-2016 22:32

           

    [Цитировать]

    Охотник-Год выпуска: 2006
    Производство: «Cinema Art Studio по заказу Централ Партнершип»
    Жанр: Боевик, исторический фильм, мистика, приключения
    Продолжительность: ~52 мин.
    Субтитры: Отсутствуют-Режиссер: Владимир Котт-В ролях: Евгений Цыганов, Сергей Никоненко, Елена Панова, Александр Яцко, Евдокия Германова, Раиса Рязанова, Валентин Смирнитский, Анатолий Кот, Ольга Бешуля, Людмила Солоденко, Николай Шатохин, Ален Ив Мевуту, Серёжа Кулинкович, Георгий Белецкий, Игорь Скурихин, Янина Хачатурова, Лариса Домаскина, Борис Эстрин, Александр Синюков, Виталий Гребенников, Альберт Филозов, Валерий Иваков, Томас Моцкус, Александр Резалин, Галина Кашковская, Владимир Жарников, Наталья Батрак, Диана Рахимова, Сергей Сокольский, Владимир Зайцев, Ольга Битюцкая, Иван Стебунов, Татьяна Масс, Александр Базоев, Андрей Межулис, Никита Ефремов, Иван Громов, Владимир Стеклов, Виктор Сарайкин, Павел Сборщиков, Николай Мерзликин, Лариса Наумкина, Арсений Шульгин, Галина Анисимова (II), Дмитрий Персин, Дмитрий Межевич и др.-Описание: Владимир, средневековый охотник, по воле языческого бога Симаргла попадает в наше время. Будучи сам осуждён по ложному доносу в убийстве невесты князя, он помогает восстанавливать правосудие, распутывая сложные истории и, таким образом, освобождая несправедливо осуждённых. В этом ему помогают его навыки распутывания следов, а также пенсионер – владелец зоомагазина «Миллион друзей» и журналистка Ирина. В первый же день своего пребывания в нашем времени охотник поражает своих новых знакомых старославянскими оборотами речи и необычными способностями.-Релиз группы -Все раздачи сериала
    Семпл-Качество: DVDRip
    Формат: AVI
    Видео кодек: XviD
    Аудио кодек: MP3
    Видео: 704x400 (1.76:1), 25 fps, XviD build 73 ~1231 kbps avg, 0.18 bit/pixel
    Аудио: 48 kHz, MPEG Layer 3, 2 ch, ~192.00 kbps avg

    MediaInfo

    Общее
    Полное имя                               : D:\Сериалы\Охотник серия. Охотник.avi
    Формат                                   : AVI
    Формат/Информация                        : Audio Video Interleave
    Размер файла                             : 530 Мбайт
    Продолжительность                        : 51 м.
    Общий поток                              : 1433 Кбит/сек
    Библиотека кодирования                   : VirtualDub build 35576/release
    Видео
    Идентификатор                            : 0
    Формат                                   : MPEG-4 Visual
    Профиль формата                          : Advanced Simple@L5
    Параметр BVOP формата                    : 2
    Параметр QPel формата                    : Нет
    Параметр GMC формата                     : Без точки перехода
    Параметр матрицы формата                 : Выборочная
    Идентификатор кодека                     : XVID
    Идентификатор кодека/Подсказка           : XviD
    Продолжительность                        : 51 м.
    Битрейт                                  : 1231 Кбит/сек
    Ширина                                   : 704 пикселя
    Высота                                   : 400 пикселей
    Соотношение сторон                       : 16:9
    Частота кадров                           : 25,000 кадров/сек
    Цветовое пространство                    : YUV
    Субдискретизация насыщенности            : 4:2:0
    Битовая глубина                          : 8 бит
    Тип развёртки                            : Прогрессивная
    Метод сжатия                             : С потерями
    Бит/(Пиксели*Кадры)                      : 0.175
    Размер потока                            : 455 Мбайт (86%)
    Библиотека кодирования                   : XviD 73
    Аудио
    Идентификатор                            : 1
    Формат                                   : MPEG Audio
    Версия формата                           : Version 1
    Профиль формата                          : Layer 3
    Режим                                    : Joint stereo
    Расширение режима                        : MS Stereo
    Идентификатор кодека                     : 55
    Идентификатор кодека/Подсказка           : MP3
    Продолжительность                        : 51 м.
    Вид битрейта                             : Постоянный
    Битрейт                                  : 192 Кбит/сек
    Каналы                                   : 2 канала
    Частота                                  : 48,0 КГц
    Метод сжатия                             : С потерями
    Размер потока                            : 71,0 Мбайт (13%)
    Выравнивание                             : Разделение по промежуткам
    Продолжительность промежутка             : 40  мс. (1,00 видеокадр)
    Время предзагрузки промежутка            : 500  мс.

    Скриншоты








    Скачать .torrent

    Скачать торрент-файл бесплатно и на максимальной скорости!

    Как скачивать? · Что такое торрент? · Рейтинг и ограничения

    !ВНИМАНИЕ!
    Сайт не распространяет и не хранит электронные версии произведений, а занимается лишь лишь предоставлением доступа к создаваемому пользователями каталогу ссылок на торрент-файлы, которые содержат только списки хеш-сумм, убедительная просьба с жалобами обращаться напрямую к пользователю. Файлы для обмена на трекере предоставлены пользователями сайта, и администрация не несёт ответственности за их содержание. Просьба не заливать файлы, защищенные авторскими правами, а также файлы нелегального содержания!


    _________________
    [Профиль] [ЛС]
    Показать сообщения:    
    Ответить на тему

    Текущее время: Сегодня, в 19:49

    Часовой пояс: GMT + 2



    Вы не можете начинать темы
    Вы не можете отвечать на сообщения
    Вы не можете редактировать свои сообщения
    Вы не можете удалять свои сообщения
    Вы не можете голосовать в опросах
    Вы не можете прикреплять файлы к сообщениям
    Вы не можете скачивать файлы