BitTorrentTracker PerecTracker.org
BitTorrentTracker PerecTracker.org
    
Регистрация  ·  Вход
 
 · 
Забыли пароль?

  • Забывая себя / Забудь моё «Я» / Vergiss mein Ich / Lose My Self (Ян Шомбург / Jan Schomburg) [2014, Германия, драма, DVDRip] VO (Павел Морозов aka PashaUp) + Sub Rus + Original Ger

    Ответить на тему
     
    Автор Сообщение

    rechyn

    Создавать темы 04-Фев-2016 21:15

           

    [Цитировать]

    Забывая себя / Забудь моё «Я» / Vergiss mein Ich / Lose My Self
    Страна: Германия
    Жанр: драма
    Год выпуска: 2014
    Продолжительность: 01:29:19
    Перевод: Одноголосый закадровый (Павел Морозов aka PashaUp)
    Cубтитры: русские, английские
    Оригинальная аудиодорожка: немецкий (отдельно)
    Режиссер: Ян Шомбург / Jan Schomburg
    В ролях: Мария Шрадер, Йоханнес Криш, Рональд Церфельд, Сандра Хюллер, Штефан Лампадиус, Надин Петри, Петер Прагер. Джудит Вульф, Джеффри Зэк, Юрген Риссманн
    Описание: Лена Фербен напрочь теряет память. В один миг вся биография жизни стирается из головы женщины. Родители и супруг для нее отныне посторонние люди, а их рассказы о прошлом звучат для нее как небылицы. Теперь страдающей от амнезии женщине придется сделать непростой выбор: либо начать жизнь с нуля, либо попытаться снова стать тем человеком, каким она была прежде...
    Сэмпл: http://multi-up.com/1087682
    Качество видео: DVDRip
    Формат видео: AVI
    Видео: 720x384 (1.88:1), 25 fps, XviD build 50 ~1885 kbps avg, 0.27 bit/pixel
    Аудио: 48 kHz, AC3 Dolby Digital, 3/2 (L,C,R,l,r) + LFE ch, ~448 kbps - русский VO
    Аудио 2: 48 kHz, AC3 Dolby Digital, 3/2 (L,C,R,l,r) + LFE ch, ~448 kbps - немецкий (отдельным файлом)
    Формат субтитров: softsub (SRT)
    Доп. информация о субтитрах: русские субтитры creo140 и kon2011

    MediaInfo

    Общее
    Полное имя : D:\Vergiss.Mein.Ich_2014\Vergiss.Mein.Ich_2014.avi
    Формат : AVI
    Формат/Информация : Audio Video Interleave
    Размер файла : 1,46 Гбайт
    Продолжительность : 1 ч. 29 м.
    Общий поток : 2344 Кбит/сек
    Программа кодирования : VirtualDubMod 1.5.10.2 (build 2540/release)
    Библиотека кодирования : VirtualDubMod build 2540/release
    Видео
    Идентификатор : 0
    Формат : MPEG-4 Visual
    Профиль формата : Advanced Simple@L5
    Параметр BVOP формата : 1
    Параметр QPel формата : Нет
    Параметр GMC формата : Без точки перехода
    Параметр матрицы формата : Default (MPEG)
    Идентификатор кодека : XVID
    Идентификатор кодека/Подсказка : XviD
    Продолжительность : 1 ч. 29 м.
    Битрейт : 1886 Кбит/сек
    Ширина : 720 пикселей
    Высота : 384 пикселя
    Соотношение сторон : 1,85:1
    Частота кадров : 25,000 кадров/сек
    Цветовое пространство : YUV
    Субдискретизация насыщенности : 4:2:0
    Битовая глубина : 8 бит
    Тип развёртки : Прогрессивная
    Метод сжатия : С потерями
    Бит/(Пиксели*Кадры) : 0.273
    Размер потока : 1,18 Гбайт (80%)
    Библиотека кодирования : XviD 1.2.1 (UTC 2008-12-04)
    Аудио
    Идентификатор : 1
    Формат : AC-3
    Формат/Информация : Audio Coding 3
    Расширение режима : CM (complete main)
    Параметр Endianness формата : Big
    Идентификатор кодека : 2000
    Продолжительность : 1 ч. 29 м.
    Вид битрейта : Постоянный
    Битрейт : 448 Кбит/сек
    Каналы : 6 каналов
    Расположение каналов : Front: L C R, Side: L R, LFE
    Частота : 48,0 КГц
    Частота кадров : 31,250 кадров/сек (1536 spf)
    Метод сжатия : С потерями
    Размер потока : 286 Мбайт (19%)
    Выравнивание : Разделение по промежуткам
    Продолжительность промежутка : 40 мс. (1,00 видеокадр)
    Время предзагрузки промежутка : 500 мс.

    Скриншот c названием фильма

    Скриншоты

    Скачать .torrent

    Скачать торрент-файл бесплатно и на максимальной скорости!

    Как скачивать? · Что такое торрент? · Рейтинг и ограничения

    !ВНИМАНИЕ!
    Сайт не распространяет и не хранит электронные версии произведений, а занимается лишь лишь предоставлением доступа к создаваемому пользователями каталогу ссылок на торрент-файлы, которые содержат только списки хеш-сумм, убедительная просьба с жалобами обращаться напрямую к пользователю. Файлы для обмена на трекере предоставлены пользователями сайта, и администрация не несёт ответственности за их содержание. Просьба не заливать файлы, защищенные авторскими правами, а также файлы нелегального содержания!


    _________________
    [Профиль] [ЛС]
    Показать сообщения:    
    Ответить на тему

    Текущее время: Сегодня, в 04:15

    Часовой пояс: GMT + 2



    Вы не можете начинать темы
    Вы не можете отвечать на сообщения
    Вы не можете редактировать свои сообщения
    Вы не можете удалять свои сообщения
    Вы не можете голосовать в опросах
    Вы не можете прикреплять файлы к сообщениям
    Вы не можете скачивать файлы