Register  ·  Log in
Forgot password?

  • Снежная битва / La guerre des tuques 3D (Жан-Франсуа Пуле / Jean-François Pouliot, Франсуа Бриссон / François Brisson) [2015, Канада, мультфильм, WEBRip] Dub |Чистый звук|

    Reply to topic
    Author Message


    Post 04-Feb-2016 01:22



    Снежная битва / La guerre des tuques 3D-Страна: Канада
    Жанр: мультфильм
    Год выпуска: 2015
    Продолжительность: 01:21:59
    Перевод: Профессиональный (полное дублирование) |Чистый звук|
    Cубтитры: нет-Режиссер: Жан-Франсуа Пуле / Jean-François Pouliot, Франсуа Бриссон / François Brisson-В ролях: Анджела Галуппо, Марилуп Вульф, Люсинда Дэвис, Николас Савард-Хербер, Софи Кадьо, Энн Касабонн, Хелен Буржуа Леклерк, Росс Линч, Катрин Трюдо, Жильдор Руа-Описание: Чтобы развлечься во время зимних каникул, детвора из маленькой деревни решает устроить грандиозное снежное побоище между двумя командами.- -Релиз от: -Автор рипа: Yarmak23-Качество видео: WEBRip | исх. WEBRip 1080p |
    Формат видео: AVI
    Видео: 720x304 (2.35:1), 24.000 fps, XviD 65 ~2070 kbps avg, 0.394 bit/pixel
    Аудио: 48 kHz, AC3 Dolby Digital, 2/0 (L,R) ch, 448.00 kbps Constant |Дубляж|
    Скачать: Сэмпл-


    Complete name :
    Format : AVI
    Format/Info : Audio Video Interleave
    File size : 1.45 GiB
    Duration : 1h 21mn
    Overall bit rate : 2 528 Kbps
    Writing application : VirtualDubMod | || (build 2550/release)
    Writing library : VirtualDubMod build 2550/release
    ID : 0
    Format : MPEG-4 Visual
    Format profile : Advanced Simple@L5
    Format settings, BVOP : 1
    Format settings, QPel : No
    Format settings, GMC : No warppoints
    Format settings, Matrix : Custom
    Codec ID : XVID
    Codec ID/Hint : XviD
    Duration : 1h 21mn
    Bit rate : 2 070 Kbps
    Width : 720 pixels
    Height : 304 pixels
    Display aspect ratio : 2.35:1
    Frame rate : 24.000 fps
    Color space : YUV
    Chroma subsampling : 4:2:0
    Bit depth : 8 bits
    Scan type : Progressive
    Compression mode : Lossy
    Bits/(Pixel*Frame) : 0.394
    Stream size : 1.19 GiB (82%)
    Writing library : XviD 65
    ID : 1
    Format : AC-3
    Format/Info : Audio Coding 3
    Mode extension : CM (complete main)
    Format settings, Endianness : Big
    Codec ID : 2000
    Duration : 1h 21mn
    Bit rate mode : Constant
    Bit rate : 448 Kbps
    Channel(s) : 2 channels
    Channel positions : Front: L R
    Sampling rate : 48.0 KHz
    Bit depth : 16 bits
    Compression mode : Lossy
    Stream size : 263 MiB (18%)
    Alignment : Split accross interleaves
    Interleave, duration : 42 ms (1.00 video frame)
    Interleave, preload duration : 500 ms

    Скриншот c названием фильма


    - рекомендуется присутствие родителей
    Download .torrent

    Download free and at maximum speed!

    How to Download? · What is a torrent? · Ratings and Limitations

    The site does not extend and does not store electronic(digital) versions of products, and only gives access to a reference catalogue created by users on torrent-files which contain only lists of the hash-sums, the earnest entreaty, with complaints(abuse) to access directly to the user. Files for an exchange on tracker are given by users of a site, and the administration does not bear the responsibility for their maintenance. The request to not fill in the files protected by copyrights, and also files of the illegal maintenance!

    [Profile] [PM]
    Display posts from previous:    
    Reply to topic

    The time now is: Today 13:25

    All times are GMT + 3 Hours

    You cannot post new topics in this forum
    You cannot reply to topics in this forum
    You cannot edit your posts in this forum
    You cannot delete your posts in this forum
    You cannot vote in polls in this forum
    You cannot attach files in this forum
    You cannot download files in this forum