BitTorrentTracker PerecTracker.org
BitTorrentTracker PerecTracker.org
    
Регистрация  ·  Вход
 
 · 
Забыли пароль?

  • Пять невест (Карен Оганесян) [2011, Россия, комедия, BDRip] Rus

    Ответить на тему
     
    Автор Сообщение

    rechyn

    Создавать темы 04-Фев-2016 00:22

           

    [Цитировать]

    Пять невест
    «Комедия о любви и дружбе»
    -Страна: Россия / Централ Партнершип
    Жанр: комедия
    Год выпуска: 2011
    Продолжительность: 01:43:19
    Режиссёр: Карен Оганесян
    В ролях: Данила Козловский, Елизавета Боярская, Артур Смольянинов, Светлана Ходченкова, Владимир Яглыч, Юлия Пересильд, Александр Лойе, Ксения Роменкова, Хорен Левонян, Ирина Пегова, Марина Голуб, Андрей Федорцов, Анна Табанина, Михаил Горевой, Валерий Золотухин.
    Описание: Май 1945 года. Вся страна ликует и строит планы на новую послевоенную жизнь. Счастливые воины-победители, дошедшие до Берлина, мечтают вернуться героями домой. Но их не спешат отпускать… Очень расстроены этим обстоятельством бравые летчики-истребители Вадик, Лёша, Гарик, Ваня и Миша. Ведь в их отсутствие всех красивых девчонок могут разобрать!
    Лёше Каверину повезло — его отправляют в командировку на Родину. У друзей рождается авантюрный план: Лёша должен найти друзьям невест и жениться на них, используя удостоверения ребят. И на всё про всё у него всего одни сутки…-Рейтинг
    imdb.com: 6.40 (356)
    kinopoisk.ru: 7.136 (16 177)
    -Сэмпл: http://multi-up.com/1087542-Качество видео: BDRip [5NEVEST_BD_BLUEBIRD]
    Формат видео: AVI
    Видео: XviD build 66, 704x384 (1.85:1), 25.000 fps, ~1633 kbps avg, 0.242 bit/pixel
    Аудио: 48 kHz, AC3 Dolby Digital, 3/2 (L,C,R,l,r) + LFE ch, ~384 kbps avg (Rus)
    -

    MediaInfo

    Общее
    Полное имя : D:\5.Nevest.2011.Rus.BDRip.1,46Gb.XviD.AC3.avi
    Формат : AVI
    Формат/Информация : Audio Video Interleave
    Размер файла : 1,46 Гбайт
    Продолжительность : 1 ч. 43 м.
    Общий поток : 2027 Кбит/сек
    Название фильма : Пять невест 2011.
    Режиссёр : Карен Оганесян
    Дата записи : 03.02.2016
    Программа кодирования : VirtualDubModRus 1.5.10.2 (build 2542/release)
    Библиотека кодирования : VirtualDubMod build 2542/release
    Правообладатель : Rutracker.org
    Примечание : BDRip by MooN_WalkeR
    Видео
    Идентификатор : 0
    Формат : MPEG-4 Visual
    Профиль формата : Advanced Simple@L5
    Параметр BVOP формата : 1
    Параметр QPel формата : Нет
    Параметр GMC формата : Без точки перехода
    Параметр матрицы формата : Выборочная
    Идентификатор кодека : XVID
    Идентификатор кодека/Подсказка : XviD
    Продолжительность : 1 ч. 43 м.
    Битрейт : 1633 Кбит/сек
    Ширина : 704 пикселя
    Высота : 384 пикселя
    Соотношение сторон : 1,85:1
    Частота кадров : 25,000 кадров/сек
    Цветовое пространство : YUV
    Субдискретизация насыщенности : 4:2:0
    Битовая глубина : 8 бит
    Тип развёртки : Прогрессивная
    Метод сжатия : С потерями
    Бит/(Пиксели*Кадры) : 0.242
    Размер потока : 1,18 Гбайт (81%)
    Библиотека кодирования : XviD 66
    Аудио
    Идентификатор : 1
    Формат : AC-3
    Формат/Информация : Audio Coding 3
    Расширение режима : CM (complete main)
    Параметр Endianness формата : Big
    Идентификатор кодека : 2000
    Продолжительность : 1 ч. 43 м.
    Вид битрейта : Постоянный
    Битрейт : 384 Кбит/сек
    Каналы : 6 каналов
    Расположение каналов : Front: L C R, Side: L R, LFE
    Частота : 48,0 КГц
    Битовая глубина : 16 бит
    Метод сжатия : С потерями
    Размер потока : 284 Мбайт (19%)
    Выравнивание : Разделение по промежуткам
    Продолжительность промежутка : 40 мс. (1,00 видеокадр)
    Время предзагрузки промежутка : 500 мс.
    Заголовок : Rus

    Скриншоты


    Скачать .torrent

    Скачать торрент-файл бесплатно и на максимальной скорости!

    Как скачивать? · Что такое торрент? · Рейтинг и ограничения

    !ВНИМАНИЕ!
    Сайт не распространяет и не хранит электронные версии произведений, а занимается лишь лишь предоставлением доступа к создаваемому пользователями каталогу ссылок на торрент-файлы, которые содержат только списки хеш-сумм, убедительная просьба с жалобами обращаться напрямую к пользователю. Файлы для обмена на трекере предоставлены пользователями сайта, и администрация не несёт ответственности за их содержание. Просьба не заливать файлы, защищенные авторскими правами, а также файлы нелегального содержания!


    _________________
    [Профиль] [ЛС]
    Показать сообщения:    
    Ответить на тему

    Текущее время: Сегодня, в 12:20

    Часовой пояс: GMT + 2



    Вы не можете начинать темы
    Вы не можете отвечать на сообщения
    Вы не можете редактировать свои сообщения
    Вы не можете удалять свои сообщения
    Вы не можете голосовать в опросах
    Вы не можете прикреплять файлы к сообщениям
    Вы не можете скачивать файлы