BitTorrentTracker PerecTracker.org
BitTorrentTracker PerecTracker.org
    
Регистрация  ·  Вход
 
 · 
Забыли пароль?

  • Декаданс / Decadencia (Хоакин Родригес / Joaquin Rodriguez) [2015, Мексика, Эротика, драма, DVDRip] DVO

    Ответить на тему
     
    Автор Сообщение

    rechyn

    Создавать темы 04-Фев-2016 00:22

           

    [Цитировать]

    Декаданс / DecadenciaСтрана: Мексика
    Жанр: Эротика, драма
    Год выпуска: 2015
    Продолжительность: 01:31:06
    Перевод: Любительский (двухголосый закадровый) Galina Vasyukova & datynet; перевод: Куценко
    Cубтитры: нет
    Режиссер: Хоакин Родригес / Joaquin Rodriguez
    В ролях: Алехандро Естрада, Натали Уманя, Роберто Паласуелос, Саманта Годой
    Описание: Аннабель Болио-молодая и красивая модель, а Оскар Прац - блестящий предприниматель. Между ними вспыхивает искра от которого разгорается страстный роман, но их любовь быстро превращается в сексуальный кошмар...
    :
    Качество видео: DVDRip
    Формат видео: MKV
    Видео: MPEG4 Video (H264) 720x384 23.976fps
    Аудио: 48 kHz, MP3, 2 channels, stereo, 192 kbps

    MediaInfo

    General
    Unique ID : 186774597110254688861196249909894671118 (0x8C837A9BFA9D6D19AC82C955CDCD6B0E)
    Complete name : E:\Decadencia.2015.mkv
    Format : Matroska
    Format version : Version 4 / Version 2
    File size : 972 MiB
    Duration : 1h 31mn
    Overall bit rate : 1 492 Kbps
    Encoded date : UTC 2016-02-03 13:26:12
    Writing application : mkvmerge v8.6.1 ('Flying') 64bit
    Writing library : libebml v1.3.3 + libmatroska v1.4.4
    Video
    ID : 1
    Format : AVC
    Format/Info : Advanced Video Codec
    Format profile : High@L4.1
    Format settings, CABAC : Yes
    Format settings, ReFrames : 5 frames
    Codec ID : V_MPEG4/ISO/AVC
    Duration : 1h 31mn
    Bit rate : 1 300 Kbps
    Width : 720 pixels
    Height : 384 pixels
    Display aspect ratio : 1.85:1
    Frame rate mode : Constant
    Frame rate : 23.976 fps
    Color space : YUV
    Chroma subsampling : 4:2:0
    Bit depth : 8 bits
    Scan type : Progressive
    Bits/(Pixel*Frame) : 0.196
    Stream size : 828 MiB (85%)
    Audio
    ID : 2
    Format : MPEG Audio
    Format version : Version 1
    Format profile : Layer 3
    Codec ID : A_MPEG/L3
    Codec ID/Hint : MP3
    Duration : 1h 31mn
    Bit rate mode : Constant
    Bit rate : 192 Kbps
    Channel(s) : 2 channels
    Sampling rate : 48.0 KHz
    Compression mode : Lossy
    Stream size : 125 MiB (13%)
    Default : Yes
    Forced : No

    Скриншот c названием фильма

    Скриншоты












    Скачать .torrent

    Скачать торрент-файл бесплатно и на максимальной скорости!

    Как скачивать? · Что такое торрент? · Рейтинг и ограничения

    !ВНИМАНИЕ!
    Сайт не распространяет и не хранит электронные версии произведений, а занимается лишь лишь предоставлением доступа к создаваемому пользователями каталогу ссылок на торрент-файлы, которые содержат только списки хеш-сумм, убедительная просьба с жалобами обращаться напрямую к пользователю. Файлы для обмена на трекере предоставлены пользователями сайта, и администрация не несёт ответственности за их содержание. Просьба не заливать файлы, защищенные авторскими правами, а также файлы нелегального содержания!


    _________________
    [Профиль] [ЛС]
    Показать сообщения:    
    Ответить на тему

    Текущее время: Сегодня, в 02:34

    Часовой пояс: GMT + 2



    Вы не можете начинать темы
    Вы не можете отвечать на сообщения
    Вы не можете редактировать свои сообщения
    Вы не можете удалять свои сообщения
    Вы не можете голосовать в опросах
    Вы не можете прикреплять файлы к сообщениям
    Вы не можете скачивать файлы