Register  ·  Log in
Forgot password?

  • Декаданс / Decadencia (Хоакин Родригес / Joaquin Rodriguez) [2015, Мексика, Эротика, драма, DVDRip] DVO

    Reply to topic
    Author Message


    Post 04-Feb-2016 01:22



    Декаданс / DecadenciaСтрана: Мексика
    Жанр: Эротика, драма
    Год выпуска: 2015
    Продолжительность: 01:31:06
    Перевод: Любительский (двухголосый закадровый) Galina Vasyukova & datynet; перевод: Куценко
    Cубтитры: нет
    Режиссер: Хоакин Родригес / Joaquin Rodriguez
    В ролях: Алехандро Естрада, Натали Уманя, Роберто Паласуелос, Саманта Годой
    Описание: Аннабель Болио-молодая и красивая модель, а Оскар Прац - блестящий предприниматель. Между ними вспыхивает искра от которого разгорается страстный роман, но их любовь быстро превращается в сексуальный кошмар...
    Качество видео: DVDRip
    Формат видео: MKV
    Видео: MPEG4 Video (H264) 720x384 23.976fps
    Аудио: 48 kHz, MP3, 2 channels, stereo, 192 kbps


    Unique ID : 186774597110254688861196249909894671118 (0x8C837A9BFA9D6D19AC82C955CDCD6B0E)
    Complete name : E:\Decadencia.2015.mkv
    Format : Matroska
    Format version : Version 4 / Version 2
    File size : 972 MiB
    Duration : 1h 31mn
    Overall bit rate : 1 492 Kbps
    Encoded date : UTC 2016-02-03 13:26:12
    Writing application : mkvmerge v8.6.1 ('Flying') 64bit
    Writing library : libebml v1.3.3 + libmatroska v1.4.4
    ID : 1
    Format : AVC
    Format/Info : Advanced Video Codec
    Format profile : High@L4.1
    Format settings, CABAC : Yes
    Format settings, ReFrames : 5 frames
    Codec ID : V_MPEG4/ISO/AVC
    Duration : 1h 31mn
    Bit rate : 1 300 Kbps
    Width : 720 pixels
    Height : 384 pixels
    Display aspect ratio : 1.85:1
    Frame rate mode : Constant
    Frame rate : 23.976 fps
    Color space : YUV
    Chroma subsampling : 4:2:0
    Bit depth : 8 bits
    Scan type : Progressive
    Bits/(Pixel*Frame) : 0.196
    Stream size : 828 MiB (85%)
    ID : 2
    Format : MPEG Audio
    Format version : Version 1
    Format profile : Layer 3
    Codec ID : A_MPEG/L3
    Codec ID/Hint : MP3
    Duration : 1h 31mn
    Bit rate mode : Constant
    Bit rate : 192 Kbps
    Channel(s) : 2 channels
    Sampling rate : 48.0 KHz
    Compression mode : Lossy
    Stream size : 125 MiB (13%)
    Default : Yes
    Forced : No

    Скриншот c названием фильма


    Download .torrent

    Download free and at maximum speed!

    How to Download? · What is a torrent? · Ratings and Limitations

    The site does not extend and does not store electronic(digital) versions of products, and only gives access to a reference catalogue created by users on torrent-files which contain only lists of the hash-sums, the earnest entreaty, with complaints(abuse) to access directly to the user. Files for an exchange on tracker are given by users of a site, and the administration does not bear the responsibility for their maintenance. The request to not fill in the files protected by copyrights, and also files of the illegal maintenance!

    [Profile] [PM]
    Display posts from previous:    
    Reply to topic

    The time now is: Today 12:07

    All times are GMT + 3 Hours

    You cannot post new topics in this forum
    You cannot reply to topics in this forum
    You cannot edit your posts in this forum
    You cannot delete your posts in this forum
    You cannot vote in polls in this forum
    You cannot attach files in this forum
    You cannot download files in this forum