BitTorrentTracker PerecTracker.org
BitTorrentTracker PerecTracker.org
    
Регистрация  ·  Вход
 
 · 
Забыли пароль?

  • Любовь, секс и Лос-Анджелес / Cavemen (Хершел Фабер / Herschel Faber) [2013, США, мелодрама, комедия, BDRip-AVC] MVO + Original (eng)

    Ответить на тему
     
    Автор Сообщение

    rechyn

    Создавать темы 04-Фев-2016 00:22

           

    [Цитировать]

    Любовь, секс и Лос-Анджелес
    Cavemen
    «Downtown L.A. is their playground»


    Страна: США
    Студия: Fascination Films, Punching Bees Productions, Traverse Media
    Жанр: мелодрама, комедия
    Год выпуска: 2013
    Продолжительность: 01:26:48
    Перевод: Профессиональный (многоголосый закадровый) [Лицензия]
    Cубтитры: нет
    Оригинальная аудиодорожка: English
    Режиссер:
    Хершел Фабер / Herschel Faber
    В ролях:
    Скайлар Эстин, Камилла Белль, Чад Майкл Мюррэй, Дайо Окенайи, Алексис Нэп, Кенни Вормолд, Джейсон Патрик, Чести Бальестерос, Зулейка Силвер, Фернанда Ромеро
    Описание:
    Плей-бой из Лос-Анджелеса Дин вместе со своими закадычными друзьями живут разгульной жизнью — устраивает развратные вечеринки, снимают девчонок на ночь, употребляя море алкоголя и попадая постоянно в смешные ситуации.
    Однажды Дин решает изменить свою жизнь и попробовать найти настоящую любовь, что оказывается горадно труднее, чем он думал, в современном Лос-Анджелесе. Девятилетний племянник и лучшая подруга Тесс пытаются ему помочь найти любовь, а закадычные друзья всячески мешают этому. Дин начинает понимать, что настоящая любовь гораздо ближе, чем он мог предположить, и он должен будет сделать выбор между девушкой, которая ему идеально подходит и соблазнительной девушкой из его фантазий…


    Автор рипа: Stalker oK
    Сэмпл: http://sendfile.su/1200597
    Качество видео: BDRip-AVC [kinozal / BDRemux 1080p]
    Формат видео: MKV
    Видео кодек: AVC
    Аудио кодек: AC3
    Видео: 1515 Кбит/сек, 1008*420 (2,40:1), в 23,976 кадр/сек, AVC
    Аудио #1: Russian, 448 Кбит/сек, 48,0 КГц, 16 бит, 6 канала(ов), AC-3
    Аудио #2: English, 448 Кбит/сек, 48,0 КГц, 16 бит, 6 канала(ов), AC-3

    MediaInfo

    Общее
    Уникальный идентификатор : 242765555094008686001776269515466524422 (0xB6A2F1F8C45DE4949EE4EE961F7CC706)
    Полное имя : O:\temp\Cavemen\Ljubov'.seks.i.Los-Andzheles.2013.BDRip-AVC.MVO...stalkerok.new-team.mkv
    Формат : Matroska
    Размер файла : 1,46 Гбайт
    Продолжительность : 1 ч. 26 м.
    Общий поток : 2410 Кбит/сек
    Название фильма : Cavemen (2013) (New-Team) (Rip by Stalker oK)
    Дата кодирования : UTC 2014-06-28 13:45:37
    Программа кодирования : mkvmerge v6.1.0 ('Old Devil') built on Mar 4 2013 09:10:42
    Библиотека кодирования : libebml v1.3.0 + libmatroska v1.4.0
    Обложка : Yes
    Видео
    Идентификатор : 1
    Формат : AVC
    Формат/Информация : Advanced Video Codec
    Профиль формата : High@L4.1
    Параметр CABAC формата : Да
    Параметр ReFrames формата : 11 кадры
    Идентификатор кодека : V_MPEG4/ISO/AVC
    Продолжительность : 1 ч. 26 м.
    Битрейт : 1515 Кбит/сек
    Ширина : 1008 пикс.
    Высота : 420 пикс.
    Соотношение сторон : 2,40:1
    Частота кадров : 23,976 кадр/сек
    Цветовое пространство : YUV
    Подвыборка цветности : 4:2:0
    Битовая глубина : 8 бит
    Тип развёртки : Прогрессивная
    Бит/(Пиксели*Кадры) : 0.149
    Размер потока : 910 Мбайт (61%)
    Библиотека кодирования : x264 core 138 r2358 9e941d1
    Настройки программы : cabac=1 / ref=11 / deblock=1:-3:-2 / analyse=0x3:0x133 / me=umh / subme=11 / psy=1 / psy_rd=1.00:0.05 / mixed_ref=1 / me_range=48 / chroma_me=1 / trellis=2 / 8x8dct=1 / cqm=0 / deadzone=21,11 / fast_pskip=0 / chroma_qp_offset=-3 / threads=12 / lookahead_threads=3 / sliced_threads=0 / nr=0 / decimate=0 / interlaced=0 / bluray_compat=0 / constrained_intra=0 / bframes=11 / b_pyramid=2 / b_adapt=2 / b_bias=0 / direct=3 / weightb=1 / open_gop=0 / weightp=2 / keyint=240 / keyint_min=23 / scenecut=40 / intra_refresh=0 / rc_lookahead=80 / rc=2pass / mbtree=1 / bitrate=1515 / ratetol=1.0 / qcomp=0.60 / qpmin=0 / qpmax=69 / qpstep=4 / cplxblur=20.0 / qblur=0.5 / vbv_maxrate=20000 / vbv_bufsize=25000 / nal_hrd=none / ip_ratio=1.40 / aq=2:0.80
    Аудио #1
    Идентификатор : 2
    Формат : AC-3
    Формат/Информация : Audio Coding 3
    Расширение режима : CM (complete main)
    Идентификатор кодека : A_AC3
    Продолжительность : 1 ч. 26 м.
    Вид битрейта : Постоянный
    Битрейт : 448 Кбит/сек
    Канал(ы) : 6 канала(ов)
    Расположение каналов : Front: L C R, Side: L R, LFE
    Частота : 48,0 КГц
    Битовая глубина : 16 бит
    Метод сжатия : С потерями
    Размер потока : 278 Мбайт (19%)
    Язык : Russian
    Аудио #2
    Идентификатор : 3
    Формат : AC-3
    Формат/Информация : Audio Coding 3
    Расширение режима : CM (complete main)
    Идентификатор кодека : A_AC3
    Продолжительность : 1 ч. 26 м.
    Вид битрейта : Постоянный
    Битрейт : 448 Кбит/сек
    Канал(ы) : 6 канала(ов)
    Расположение каналов : Front: L C R, Side: L R, LFE
    Частота : 48,0 КГц
    Битовая глубина : 16 бит
    Метод сжатия : С потерями
    Размер потока : 278 Мбайт (19%)
    Язык : English
    Меню
    00:00:00.000 : en:HYPERHD 01
    00:08:29.342 : en:HYPERHD 02
    00:16:41.042 : en:HYPERHD 03
    00:25:20.811 : en:HYPERHD 04
    00:35:27.959 : en:HYPERHD 05
    00:42:59.076 : en:HYPERHD 06
    00:48:36.747 : en:HYPERHD 07
    01:01:23.972 : en:HYPERHD 08
    01:11:58.105 : en:HYPERHD 09
    01:21:45.901 : en:HYPERHD 10

    Скриншоты

    Скачать .torrent

    Скачать торрент-файл бесплатно и на максимальной скорости!

    Как скачивать? · Что такое торрент? · Рейтинг и ограничения

    !ВНИМАНИЕ!
    Сайт не распространяет и не хранит электронные версии произведений, а занимается лишь лишь предоставлением доступа к создаваемому пользователями каталогу ссылок на торрент-файлы, которые содержат только списки хеш-сумм, убедительная просьба с жалобами обращаться напрямую к пользователю. Файлы для обмена на трекере предоставлены пользователями сайта, и администрация не несёт ответственности за их содержание. Просьба не заливать файлы, защищенные авторскими правами, а также файлы нелегального содержания!


    _________________
    [Профиль] [ЛС]
    Показать сообщения:    
    Ответить на тему

    Текущее время: Сегодня, в 21:23

    Часовой пояс: GMT + 2



    Вы не можете начинать темы
    Вы не можете отвечать на сообщения
    Вы не можете редактировать свои сообщения
    Вы не можете удалять свои сообщения
    Вы не можете голосовать в опросах
    Вы не можете прикреплять файлы к сообщениям
    Вы не можете скачивать файлы