BitTorrentTracker PerecTracker.org
BitTorrentTracker PerecTracker.org
    
Регистрация  ·  Вход
 
 · 
Забыли пароль?

  • Резня на вечеринке женского общества / Резня женщин / Sorority Party Massacre (Крис В. Фриман, Джастин Джонс) [2013, триллер, ужасы, HDRip] MVO (BadCatStudio) + Original

    Ответить на тему
     
    Автор Сообщение

    rechyn

    Создавать темы 03-Фев-2016 00:15

           

    [Цитировать]

    Резня на вечеринке женского общества / Sorority Party MassacreГод выпуска: 2013
    Страна: США
    Жанр: триллер, ужасы
    Продолжительность: 01:43:26
    Перевод: Любительский (многоголосый, закадровый) [BadCatStudio]
    Режиссёр: Крис В. Фриман, Джастин Джонс-В ролях: Томас Дауни, Эд О’Росс, Марисса Скелл, Ив Мауро, Лесли Истербрук, Ричард Молл, Луис Мэндилор, Кевин Сорбо, Ивет Йэтс, Кэйси Фицджералд и др.-Описание: Чрезвычайно вспыльчивый детектив Ватс отправляется на поиски пропавшей дочери своего начальника на остров Гризли Коув, где проходит конкурсный отбор в некое элитное женское сообщество (раскрывается тема сисек). С его приездом на тихом мирном острове начинается череда кошмарных убийств претенденток на победу, причём самыми изощрёнными и неожиданными способами... Интрига не отпустит пытливого зрителя до самого финала! Переведено изумительно душевно с лёгкими вкраплениями ненорматива...
    Внимание! Содержится ненормативная лексика.
    Доп. информация: Не рекомендуется несовершеннолетним, беременным и кормящим матерям, а также людям, страдающим психическими заболеваниями и отсутствием чувства юмора!-Релиз: BadCatStudio
    Перевод: Андрей Чусовитин
    Редактура: Андрей Зверев
    Закадровый текст читали: Андрей Зверев, Глеб Петров, Лилия Власова, Людмила Акшенцева, Ирина Ясногородская, Рина Горькая, Кристина Филатова, Алсу Каримова
    Работа со звуком: Павел Шевчук, Александр Артемов
    Работа с видео: Александр Артемов-Качество: HDRip [Исходник: BDRip 1080p]
    Формат: AVI
    Видео кодек: XviD
    Аудио кодек: AC3
    Видео: 720x400, 23.976 fps, xvid, 1613 kbps avg, ~0.234 bit/pixel
    Аудио #1: 48 kHz, AC3, 2 ch, 192.00 kbps avg MVO [BadCatStudio]
    Аудио #2: 48 kHz, AC3, 2 ch, 192.00 kbps avg Original
    Субтитры: отсутствуют-Сэмпл / IMDB / КиноПоиск-

    MediaInfo

    General
    Complete name               : G:\000\Sorority.Party.Massacre.2013.HDRip.400p.Rus.Eng-BadCatStudio.avi
    Format                      : AVI
    Format/Info                 : Audio Video Interleave
    File size                   : 1.46 GiB
    Duration                    : 1h 43mn
    Overall bit rate            : 2 016 Kbps
    Writing application         : VirtualDubMod 1.5.10.3 (build 2550/release)
    Writing library             : VirtualDubMod build 2550/release
    Video
    ID                          : 0
    Format                      : MPEG-4 Visual
    Format profile              : Advanced Simple@L5
    Format settings, BVOP       : 2
    Format settings, QPel       : No
    Format settings, GMC        : No warppoints
    Format settings, Matrix     : Default (H.263)
    Codec ID                    : XVID
    Codec ID/Hint               : XviD
    Duration                    : 1h 43mn
    Bit rate                    : 1 617 Kbps
    Width                       : 720 pixels
    Height                      : 400 pixels
    Display aspect ratio        : 16:9
    Frame rate                  : 23.976 (24000/1001) fps
    Color space                 : YUV
    Chroma subsampling          : 4:2:0
    Bit depth                   : 8 bits
    Scan type                   : Progressive
    Compression mode            : Lossy
    Bits/(Pixel*Frame)          : 0.234
    Stream size                 : 1.17 GiB (80%)
    Writing library             : XviD 67
    Audio #1
    ID                          : 1
    Format                      : AC-3
    Format/Info                 : Audio Coding 3
    Mode extension              : CM (complete main)
    Format settings, Endianness : Big
    Codec ID                    : 2000
    Duration                    : 1h 43mn
    Bit rate mode               : Constant
    Bit rate                    : 192 Kbps
    Channel(s)                  : 2 channels
    Channel positions           : Front: L R
    Sampling rate               : 48.0 KHz
    Frame rate                  : 31.250 fps (1536 spf)
    Compression mode            : Lossy
    Stream size                 : 142 MiB (10%)
    Alignment                   : Split accross interleaves
    Interleave, duration        : 42 ms (1.00 video frame)
    Interleave, preload duratio : 500 ms
    Audio #2
    ID                          : 2
    Format                      : AC-3
    Format/Info                 : Audio Coding 3
    Mode extension              : CM (complete main)
    Format settings, Endianness : Big
    Codec ID                    : 2000
    Duration                    : 1h 43mn
    Bit rate mode               : Constant
    Bit rate                    : 192 Kbps
    Channel(s)                  : 2 channels
    Channel positions           : Front: L R
    Sampling rate               : 48.0 KHz
    Frame rate                  : 31.250 fps (1536 spf)
    Compression mode            : Lossy
    Stream size                 : 142 MiB (10%)
    Alignment                   : Split accross interleaves
    Interleave, duration        : 42 ms (1.00 video frame)
    Interleave, preload duratio : 500 ms

    Скриншоты

    Скачать .torrent

    Скачать торрент-файл бесплатно и на максимальной скорости!

    Как скачивать? · Что такое торрент? · Рейтинг и ограничения

    !ВНИМАНИЕ!
    Сайт не распространяет и не хранит электронные версии произведений, а занимается лишь лишь предоставлением доступа к создаваемому пользователями каталогу ссылок на торрент-файлы, которые содержат только списки хеш-сумм, убедительная просьба с жалобами обращаться напрямую к пользователю. Файлы для обмена на трекере предоставлены пользователями сайта, и администрация не несёт ответственности за их содержание. Просьба не заливать файлы, защищенные авторскими правами, а также файлы нелегального содержания!


    _________________
    [Профиль] [ЛС]
    Показать сообщения:    
    Ответить на тему

    Текущее время: Сегодня, в 02:27

    Часовой пояс: GMT + 2



    Вы не можете начинать темы
    Вы не можете отвечать на сообщения
    Вы не можете редактировать свои сообщения
    Вы не можете удалять свои сообщения
    Вы не можете голосовать в опросах
    Вы не можете прикреплять файлы к сообщениям
    Вы не можете скачивать файлы