BitTorrentTracker PerecTracker.org
BitTorrentTracker PerecTracker.org
    
Регистрация  ·  Вход
 
 · 
Забыли пароль?

  • Маленький принц / The Little Prince (Марк Осборн / Mark Osborne) [2015, мультфильм, фэнтези, BDRip] Dub

    Ответить на тему
     
    Автор Сообщение

    rechyn

    Создавать темы 03-Фев-2016 00:15

           

    [Цитировать]

    Маленький принц / The Little Prince-Страна: Франция, Канада
    Жанр: мультфильм, фэнтези
    Год выпуска: 2015
    Продолжительность: 01:46:34
    Перевод: Профессиональный (полное дублирование)
    Русские субтитры: Нет-Режиссер: Марк Осборн / Mark Osborne-Роли озвучивали: Джефф Бриджес (The Aviator, озвучка), Рэйчел МакАдамс (The Mother, озвучка), Пол Радд (Mr. Prince, озвучка), Марион Котийяр (The Rose, озвучка), Джеймс Франко (The Fox, озвучка), Бенисио Дель Торо (The Snake, озвучка), Рики Джервэйс (The Conceited Man, озвучка), Бад Корт (The King, озвучка), Пол Джаматти (The Academy Teacher, озвучка), Райли Осборн (The Little Prince, озвучка), Альберт Брукс (The Businessman, озвучка), Маккензи Фой (The Little Girl, озвучка)-Роли дублировали: Сергей Гармаш (The Aviator), Екатерина Климова (The Mother), Александр Олешко (Mr. Prince), Чулпан Хаматова (The Rose), Константин Хабенский (The Fox), Игорь Костолевский (The Snake), Андрей Леонов (The Conceited Man), Матвей Некрасов (The Little Prince), Сергей Чихачев (The Businessman), Ульяна Иващенко (The Little Girl)-Описание: Мир невозможен без фантазии и приключений. По крайней мере в это верит добродушный старик авиатор, по соседству с которым недавно поселилась одна очень педантичная мама со своей прилежной дочкой. Жизнь девочки подчинена строгому учебному плану, в котором время на друзей предусмотрено только следующим летом. Однако этот тщательно выстроенный план трещит по швам, когда в жизнь девочки врывается странный сосед с его невероятными рассказами о Маленьком Принце и далеких звездах. Осталось только починить самолет, и в путь! Так начинается большое путешествие девочки - полное опасностей, волшебства, юмора и настоящей дружбы.-Рейтинг:

    MPAA: - Рекомендуется присутствие родителей-Бюджет: $81 200 000
    Сборы в России: $2 454 701
    Мировая премьера: 22 мая 2015-Релиз: -Семпл-Качество: BDRip [Le Petit Prince.2015.BDRemux 1080p]
    Формат: AVI
    Видео: 720x304 (2.37:1), 23.976 fps, XviD build 65 ~1564 kbps avg, 0.30 bit/pixel
    Аудио: 48 kHz, AC3 Dolby Digital, 3/2 (L,C,R,l,r) + LFE ch, ~384 kbps
    Субтитры: Отсутствуют-

    MI

    Format : AVIFormat/Info : Audio Video InterleaveFile size : 1.46 GiBDuration : 1h 46mnOverall bit rate : 1 958 KbpsWriting application : VirtualDubMod 1.5.10.3 | www.virtualdub-fr.org || (build 2550/release)Writing library : VirtualDubMod build 2550/release
    VideoID : 0Format : MPEG-4 VisualFormat profile : Advanced Simple@L5Format settings, BVOP : 2Format settings, QPel : NoFormat settings, GMC : No warppointsFormat settings, Matrix : CustomCodec ID : XVIDCodec ID/Hint : XviDDuration : 1h 46mnBit rate : 1 565 KbpsWidth : 720 pixelsHeight : 304 pixelsDisplay aspect ratio : 2.35:1Frame rate : 23.976 fpsColor space : YUVChroma subsampling : 4:2:0Bit depth : 8 bitsScan type : ProgressiveCompression mode : LossyBits/(Pixel*Frame) : 0.298Stream size : 1.16 GiB (80%)Writing library : XviD 65
    AudioID : 1Format : AC-3Format/Info : Audio Coding 3Mode extension : CM (complete main)Format settings, Endianness : BigCodec ID : 2000Duration : 1h 46mnBit rate mode : ConstantBit rate : 384 KbpsChannel(s) : 6 channelsChannel positions : Front: L C R, Side: L R, LFESampling rate : 48.0 KHzCompression mode : LossyStream size : 292 MiB (20%)Alignment : Split accross interleavesInterleave, duration : 42 ms (1.00 video frame)Interleave, preload duratio : 500 ms

    Знаете ли Вы, что...

    • Экранизация одноименной классической сказки Антуана де Сент-Экзюпери.
    • Это первая в истории полнометражная мультипликационная постановка «Маленького принца» Антуана де Сент-Экзюпери.
    • Среди озвучивавших героев мультфильма актёров были три лауреата премии «Оскар» (Бенисио Дель Торо, Марион Котийяр и Джефф Бриджес) и три номинанта (Альберт Брукс, Пол Джаматти и Джеймс Франко).
    • Роза в английской и французской версии мультфильма говорит голосом Марион Котийяр.
    • Это французский мультфильм, однако оригинальная озвучка идёт на английском. «Парамаунт Винтадж», компания, занятая распространением в США, запретила показ английской версии мультфильма в других странах, пока он не выйдет на экраны в США, так что во всём мире идёт показ именно французской версии.
    • «Маленький принц» был одной из любимых книг Джеймса Дина, поклонником которого является Джеймс Франко. Франко играл своего кумира в фильме-биографии «Джеймс Дин» (2001). Эта роль принесла ему «Золотой глобус».
    • «Маленький принц» стал первым неамериканским мультфильмом, который произвёл фурор в Бразилии. На протяжении трёх недель мультфильм возглавлял бразильские чарты, и к 8 октября 2015 года его посмотрело свыше 2 миллионов человек.
    • еще 4 факта
    Все раздачи мультфильма!
    Скачать .torrent

    Скачать торрент-файл бесплатно и на максимальной скорости!

    Как скачивать? · Что такое торрент? · Рейтинг и ограничения

    !ВНИМАНИЕ!
    Сайт не распространяет и не хранит электронные версии произведений, а занимается лишь лишь предоставлением доступа к создаваемому пользователями каталогу ссылок на торрент-файлы, которые содержат только списки хеш-сумм, убедительная просьба с жалобами обращаться напрямую к пользователю. Файлы для обмена на трекере предоставлены пользователями сайта, и администрация не несёт ответственности за их содержание. Просьба не заливать файлы, защищенные авторскими правами, а также файлы нелегального содержания!


    _________________
    [Профиль] [ЛС]
    Показать сообщения:    
    Ответить на тему

    Текущее время: Сегодня, в 12:48

    Часовой пояс: GMT + 2



    Вы не можете начинать темы
    Вы не можете отвечать на сообщения
    Вы не можете редактировать свои сообщения
    Вы не можете удалять свои сообщения
    Вы не можете голосовать в опросах
    Вы не можете прикреплять файлы к сообщениям
    Вы не можете скачивать файлы