BitTorrentTracker PerecTracker.org
BitTorrentTracker PerecTracker.org
    
Регистрация  ·  Вход
 
 · 
Забыли пароль?

  • Тачка №19 / Vehicle 19 (Мукунда Майкл Дьюил / Mukunda Michael Dewil) [2013, Триллер, боевик, HDRip-AVC] Dub + Original (Eng) + Sub (Rus, Eng)

    Ответить на тему
     
    Автор Сообщение

    rechyn

    Создавать темы 03-Фев-2016 00:15

           

    [Цитировать]

    Тачка №19 / Vehicle 19
    «Он выбрал не ту тачку. Они нарвались не на того парня»
    Страна: США | Forefront Media Group, Safran Company, The, Industrial Development Corporation of South Africa
    Жанр: боевик, триллер
    Год выпуска: 2013
    Продолжительность: 01:25:10
    Перевод: Профессиональный (полное дублирование) [Лицензия R5]
    Cубтитры: Английские, русские
    Оригинальная дорожка: Английский
    Режиссер: Мукунда Майкл Дьюил / Mukunda Michael Dewil
    В ролях: Пол Уокер, Наима МакЛин, Ги Де Виллерс, Лэйла Хайдариан, Тшепо Масеко, Андриан Мазив, Велиль Нзуза, Мангалисо Нгема, Эрнест Кубайи, Элиз Ван Никерк
    Описание: Рассказ пойдет про американца, который перевозит свидетеля, чтобы тот дал показания против коррумпированных полицейских. Последние всеми силами будут пытаться помешать свидетелю доехать до здания суда (живым).
    |
    Автор рипа: Stalker oK
    Сэмпл: http://sendfile.su/1200108
    Качество видео: HDRip-AVC [BDRip 1080p]
    Формат видео: MKV
    Видео: 1918 Кбит/сек, 1090*454 (2,40:1), в 23,976 кадр/сек, AVC
    Аудио #1: Russian, 448 Кбит/сек, 48,0 КГц, 16 бит, 6 канала(ов), AC-3
    Аудио #2: English, 448 Кбит/сек, 48,0 КГц, 16 бит, 6 канала(ов), AC-3 (отдельно)

    MediaInfo

    Общее
    Уникальный идентификатор : 220159746234893522835430405911144324088 (0xA5A1398B54525A3FB1F0F7836D685BF8)
    Полное имя : M:\Rips3\Рутрекер сэмплы скрины\Tachka_№19_2013_HDRip_AVC_Dub\Tachka_№19_2013_HDRip_AVC_Dub.mkv
    Формат : Matroska
    Версия формата : Version 4 / Version 2
    Размер файла : 1,41 Гбайт
    Продолжительность : 1 ч. 25 м.
    Общий поток : 2365 Кбит/сек
    Название фильма : Vehicle 19 2013 (Rip by S.T.A.L.K.E.R.2)
    Дата кодирования : UTC 2013-06-11 18:14:23
    Программа кодирования : mkvmerge v6.1.0 ('Old Devil') built on Mar 2 2013 14:32:37
    Библиотека кодирования : libebml v1.3.0 + libmatroska v1.4.0
    Видео
    Идентификатор : 1
    Формат : AVC
    Формат/Информация : Advanced Video Codec
    Профиль формата : High@L4.1
    Параметр CABAC формата : Да
    Параметр ReFrames формата : 9 кадров
    Идентификатор кодека : V_MPEG4/ISO/AVC
    Продолжительность : 1 ч. 25 м.
    Битрейт : 1918 Кбит/сек
    Ширина : 1090 пикселей
    Высота : 454 пикселя
    Соотношение сторон : 2,40:1
    Режим частоты кадров : Постоянный
    Частота кадров : 23,976 (24000/1001) кадра/сек
    Цветовое пространство : YUV
    Субдискретизация насыщенности : 4:2:0
    Битовая глубина : 8 бит
    Тип развёртки : Прогрессивная
    Бит/(Пиксели*Кадры) : 0.162
    Размер потока : 1,11 Гбайт (79%)
    Библиотека кодирования : x264 core 130 r2273 b3065e6
    Настройки программы : cabac=1 / ref=9 / deblock=1:-3:-2 / analyse=0x3:0x133 / me=umh / subme=11 / psy=1 / psy_rd=0.98:0.03 / mixed_ref=1 / me_range=32 / chroma_me=1 / trellis=2 / 8x8dct=1 / cqm=0 / deadzone=21,11 / fast_pskip=1 / chroma_qp_offset=-3 / threads=9 / lookahead_threads=1 / sliced_threads=0 / nr=0 / decimate=0 / interlaced=0 / bluray_compat=0 / constrained_intra=0 / bframes=8 / b_pyramid=2 / b_adapt=2 / b_bias=0 / direct=1 / weightb=1 / open_gop=0 / weightp=2 / keyint=240 / keyint_min=23 / scenecut=40 / intra_refresh=0 / rc_lookahead=40 / rc=2pass / mbtree=1 / bitrate=1918 / ratetol=1.0 / qcomp=0.60 / qpmin=10 / qpmax=51 / qpstep=4 / cplxblur=20.0 / qblur=0.5 / vbv_maxrate=50000 / vbv_bufsize=50000 / nal_hrd=none / ip_ratio=1.40 / aq=1:1.00
    Язык : English
    Default : Да
    Forced : Нет
    Аудио
    Идентификатор : 2
    Формат : AC-3
    Формат/Информация : Audio Coding 3
    Расширение режима : CM (complete main)
    Параметр Endianness формата : Big
    Идентификатор кодека : A_AC3
    Продолжительность : 1 ч. 25 м.
    Вид битрейта : Постоянный
    Битрейт : 448 Кбит/сек
    Каналы : 6 каналов
    Расположение каналов : Front: L C R, Side: L R, LFE
    Частота : 48,0 КГц
    Частота кадров : 31,250 кадров/сек (1536 spf)
    Метод сжатия : С потерями
    Размер потока : 273 Мбайт (19%)
    Заголовок : DD 5.1 @ 448 kbps
    Язык : Russian
    Default : Да
    Forced : Нет
    Текст #1
    Идентификатор : 3
    Формат : UTF-8
    Идентификатор кодека : S_TEXT/UTF8
    Идентификатор кодека/Информация : UTF-8 Plain Text
    Заголовок : rus
    Язык : Russian
    Default : Да
    Forced : Нет
    Текст #2
    Идентификатор : 4
    Формат : UTF-8
    Идентификатор кодека : S_TEXT/UTF8
    Идентификатор кодека/Информация : UTF-8 Plain Text
    Заголовок : eng
    Язык : English
    Default : Нет
    Forced : Нет
    Общее
    Полное имя : M:\Rips3\Рутрекер сэмплы скрины\Tachka_№19_2013_HDRip_AVC_Dub\Tachka_№19_2013_HDRip_AVC_Original_Eng.ac3
    Формат : AC-3
    Формат/Информация : Audio Coding 3
    Размер файла : 273 Мбайт
    Продолжительность : 1 ч. 25 м.
    Режим общего битрейта : Постоянный
    Общий поток : 448 Кбит/сек
    Аудио
    Формат : AC-3
    Формат/Информация : Audio Coding 3
    Расширение режима : CM (complete main)
    Параметр Endianness формата : Big
    Продолжительность : 1 ч. 25 м.
    Вид битрейта : Постоянный
    Битрейт : 448 Кбит/сек
    Каналы : 6 каналов
    Расположение каналов : Front: L C R, Side: L R, LFE
    Частота : 48,0 КГц
    Частота кадров : 31,250 кадров/сек (1536 spf)
    Метод сжатия : С потерями
    Размер потока : 273 Мбайт (100%)

    Скриншоты

    Скачать .torrent

    Скачать торрент-файл бесплатно и на максимальной скорости!

    Как скачивать? · Что такое торрент? · Рейтинг и ограничения

    !ВНИМАНИЕ!
    Сайт не распространяет и не хранит электронные версии произведений, а занимается лишь лишь предоставлением доступа к создаваемому пользователями каталогу ссылок на торрент-файлы, которые содержат только списки хеш-сумм, убедительная просьба с жалобами обращаться напрямую к пользователю. Файлы для обмена на трекере предоставлены пользователями сайта, и администрация не несёт ответственности за их содержание. Просьба не заливать файлы, защищенные авторскими правами, а также файлы нелегального содержания!


    _________________
    [Профиль] [ЛС]
    Показать сообщения:    
    Ответить на тему

    Текущее время: Сегодня, в 10:32

    Часовой пояс: GMT + 2



    Вы не можете начинать темы
    Вы не можете отвечать на сообщения
    Вы не можете редактировать свои сообщения
    Вы не можете удалять свои сообщения
    Вы не можете голосовать в опросах
    Вы не можете прикреплять файлы к сообщениям
    Вы не можете скачивать файлы