Register  ·  Log in
Forgot password?

  • Незваные Гости / Intruders (Адам Шиндлер / Adam Schindler) [2015, США, Ужасы, Триллер, WEB-DLRip] DVO (Parovoz Production)

    Reply to topic
    Author Message


    Post 02-Feb-2016 21:12



    -Незваные Гости / Intruders--Страна: США
    Жанр: Ужасы , Триллер
    Год выпуска: 2015-Продолжительность: 01:30:16-Перевод: Любительский (двухголосый закадровый) Parovoz Production-Cубтитры: нет
    Оригинальная аудиодорожка: нет-Режиссер: Адам Шиндлер / Adam Schindler-В ролях: Рори Калкин, Летисия Хименез, Джек Кеси, Тимоти Т. МакКинни, Джошуа Микель, Бэт Рисграф, Мартин Старр-Описание: Анна страдает агорафобией столь сильной, что когда трое преступников врываются в ее дом, она не находит в себе сил бежать. Впрочем, вскоре бандитам предстоит осознать, что агорафобия - не единственный ее психоз...--Качество видео: WEB-DLRip
    Формат видео: AVI-Видео: XviD, 720x304 (2.35:1), 23.976 fps, ~2000 kbps avg, 0.38 bit/pixel
    Аудио: 48 kHz, AC3 Dolby Digital, 2/0 (L,R) ch, ~192 kbps avg-


    Complete name : E:\РАЗДАЧИ\Intruders (2015) WEB-DLRip.avi
    Format : AVI
    Format/Info : Audio Video Interleave
    File size : 1.40 GiB
    Duration : 1h 30mn
    Overall bit rate : 2 228 Kbps
    Writing application : VirtualDubMod | || (build 2550/release)
    Writing library : VirtualDubMod build 2550/release
    ID : 0
    Format : MPEG-4 Visual
    Format profile : Advanced Simple@L5
    Format settings, BVOP : 1
    Format settings, QPel : No
    Format settings, GMC : No warppoints
    Format settings, Matrix : Custom
    Codec ID : XVID
    Codec ID/Hint : XviD
    Duration : 1h 30mn
    Bit rate : 2 026 Kbps
    Width : 720 pixels
    Height : 304 pixels
    Display aspect ratio : 2.35:1
    Frame rate : 23.976 fps
    Color space : YUV
    Chroma subsampling : 4:2:0
    Bit depth : 8 bits
    Scan type : Progressive
    Compression mode : Lossy
    Bits/(Pixel*Frame) : 0.386
    Stream size : 1.28 GiB (91%)
    Writing library : XviD 73
    ID : 1
    Format : AC-3
    Format/Info : Audio Coding 3
    Mode extension : CM (complete main)
    Format settings, Endianness : Big
    Codec ID : 2000
    Duration : 1h 30mn
    Bit rate mode : Constant
    Bit rate : 192 Kbps
    Channel(s) : 2 channels
    Channel positions : Front: L R
    Sampling rate : 48.0 KHz
    Bit depth : 16 bits
    Compression mode : Lossy
    Stream size : 124 MiB (9%)
    Alignment : Split accross interleaves
    Interleave, duration : 42 ms (1.00 video frame)
    Interleave, preload duration : 500 ms

    Скриншот c названием фильма


    Download .torrent

    Download free and at maximum speed!

    How to Download? · What is a torrent? · Ratings and Limitations

    The site does not extend and does not store electronic(digital) versions of products, and only gives access to a reference catalogue created by users on torrent-files which contain only lists of the hash-sums, the earnest entreaty, with complaints(abuse) to access directly to the user. Files for an exchange on tracker are given by users of a site, and the administration does not bear the responsibility for their maintenance. The request to not fill in the files protected by copyrights, and also files of the illegal maintenance!

    [Profile] [PM]
    Display posts from previous:    
    Reply to topic

    The time now is: Today 18:29

    All times are GMT + 3 Hours

    You cannot post new topics in this forum
    You cannot reply to topics in this forum
    You cannot edit your posts in this forum
    You cannot delete your posts in this forum
    You cannot vote in polls in this forum
    You cannot attach files in this forum
    You cannot download files in this forum