BitTorrentTracker PerecTracker.org
BitTorrentTracker PerecTracker.org
    
Регистрация  ·  Вход
 
 · 
Забыли пароль?

  • Бабушкин дом / Granny\'s House (Лес Мэйхони / Les Mahoney) [2015, США, триллер, WEB-DLRip] DVO (Parovoz Production) + Original Eng

    Ответить на тему
     
    Автор Сообщение

    rechyn

    Создавать темы 02-Фев-2016 20:12

           

    [Цитировать]

    Бабушкин дом / Granny's House
    Страна: США
    Жанр: триллер
    Год выпуска: 2015
    Продолжительность: 01:26:32-Перевод: Любительский (двухголосный закадровый) Parovoz Production
    Cубтитры: нет
    Оригинальная аудиодорожка: английский-Режиссер: Лес Мэйхони / Les Mahoney-В ролях: Рэйчел Элиг, Билл Оберст мл., Лес Мэйхони, Гленда Морган Браун, Лаура Ли, Нисса фон Рейтер-Описание: Мэрион Роджерс (бабушка), пожилая дама в небольшом городке Хейли, неохотно принимает таинственную Ребекку Торранс, которая должна с ней жить и следить за ней, в итоге у них двоих завязывается крепкая дружба. Ребекка вскоре подает бабушке идею превращения дома в гостевой дом, для путешественников, ищущих жилье, что в итоге, приводит к выявлению у Ребекки темный и роковой тайны. Странный любовный треугольник, когда между Ребеккой и Тэдом, гостем в доме, вспыхивает любовь. Это приводит к насильственной конфронтации, которая навсегда изменит жизнь всех жителей в Бабушкином доме и Бабушкин дом превращается в жуткое место смерти и любви.-Сэмпл: http://sendfile.su/1200073-Качество видео: WEB-DLRip 1080p
    Формат видео: MKV
    Видео: h.264, 1136x640, 16:9, 23,976 (24000/1001) кадра/сек, 2818 Кбит/сек
    Аудио 1: русский, AC-3, 48,0 КГц, 192 Кбит/сек, 2 канала Front: L R
    Аудио 2: оригинал, AC-3, 48,0 КГц, 384 Кбит/сек, 6 каналов Front: L C R, Side: L R, LFE

    MediaInfo

    Формат : Matroska
    Версия формата : Version 2
    Размер файла : 2,05 Гбайт
    Продолжительность : 1 ч. 26 м.
    Общий поток : 3396 Кбит/сек
    Дата кодирования : UTC 2016-02-02 10:24:32
    Программа кодирования : mkvmerge v7.6.0 ('Garden of Dreams') 32bit built on Feb 11 2015 00:18:47
    Библиотека кодирования : libebml v1.3.1 + libmatroska v1.4.2
    Видео
    Идентификатор : 1
    Формат : AVC
    Формат/Информация : Advanced Video Codec
    Профиль формата : High@L4.1
    Параметр CABAC формата : Да
    Параметр ReFrames формата : 9 кадров
    Идентификатор кодека : V_MPEG4/ISO/AVC
    Продолжительность : 1 ч. 26 м.
    Битрейт : 2818 Кбит/сек
    Ширина : 1136 пикселей
    Высота : 640 пикселей
    Соотношение сторон : 16:9
    Режим частоты кадров : Постоянный
    Частота кадров : 23,976 (24000/1001) кадра/сек
    Цветовое пространство : YUV
    Субдискретизация насыщенности : 4:2:0
    Битовая глубина : 8 бит
    Тип развёртки : Прогрессивная
    Бит/(Пиксели*Кадры) : 0.162
    Размер потока : 1,66 Гбайт (81%)
    Библиотека кодирования : x264 core 144 r2525 40bb568
    Настройки программы : cabac=1 / ref=9 / deblock=1:-1:-1 / analyse=0x3:0x133 / me=umh / subme=9 / psy=1 / psy_rd=1.00:0.10 / mixed_ref=1 / me_range=28 / chroma_me=1 / trellis=2 / 8x8dct=1 / cqm=0 / deadzone=21,11 / fast_pskip=0 / chroma_qp_offset=-3 / threads=6 / lookahead_threads=1 / sliced_threads=0 / nr=0 / decimate=1 / interlaced=0 / bluray_compat=0 / constrained_intra=0 / bframes=9 / b_pyramid=2 / b_adapt=2 / b_bias=0 / direct=3 / weightb=1 / open_gop=0 / weightp=2 / keyint=250 / keyint_min=23 / scenecut=40 / intra_refresh=0 / rc_lookahead=50 / rc=2pass / mbtree=1 / bitrate=2818 / ratetol=1.0 / qcomp=0.60 / qpmin=0 / qpmax=69 / qpstep=4 / cplxblur=20.0 / qblur=0.5 / ip_ratio=1.40 / aq=1:1.00
    Default : Да
    Forced : Нет
    Аудио #1
    Идентификатор : 2
    Формат : AC-3
    Формат/Информация : Audio Coding 3
    Расширение режима : CM (complete main)
    Параметр Endianness формата : Big
    Идентификатор кодека : A_AC3
    Продолжительность : 1 ч. 26 м.
    Вид битрейта : Постоянный
    Битрейт : 192 Кбит/сек
    Каналы : 2 канала
    Расположение каналов : Front: L R
    Частота : 48,0 КГц
    Частота кадров : 31,250 кадров/сек (1536 spf)
    Метод сжатия : С потерями
    Размер потока : 119 Мбайт (6%)
    Заголовок : дубляж
    Язык : Russian
    Default : Да
    Forced : Нет
    Аудио #2
    Идентификатор : 3
    Формат : AC-3
    Формат/Информация : Audio Coding 3
    Расширение режима : CM (complete main)
    Параметр Endianness формата : Big
    Идентификатор кодека : A_AC3
    Продолжительность : 1 ч. 26 м.
    Вид битрейта : Постоянный
    Битрейт : 384 Кбит/сек
    Каналы : 6 каналов
    Расположение каналов : Front: L C R, Side: L R, LFE
    Частота : 48,0 КГц
    Частота кадров : 31,250 кадров/сек (1536 spf)
    Метод сжатия : С потерями
    Размер потока : 238 Мбайт (11%)
    Заголовок : оригинал
    Язык : English
    Default : Нет
    Forced : Нет

    Скриншот c названием фильма

    Скриншоты






    Скачать .torrent

    Скачать торрент-файл бесплатно и на максимальной скорости!

    Как скачивать? · Что такое торрент? · Рейтинг и ограничения

    !ВНИМАНИЕ!
    Сайт не распространяет и не хранит электронные версии произведений, а занимается лишь лишь предоставлением доступа к создаваемому пользователями каталогу ссылок на торрент-файлы, которые содержат только списки хеш-сумм, убедительная просьба с жалобами обращаться напрямую к пользователю. Файлы для обмена на трекере предоставлены пользователями сайта, и администрация не несёт ответственности за их содержание. Просьба не заливать файлы, защищенные авторскими правами, а также файлы нелегального содержания!


    _________________
    [Профиль] [ЛС]
    Показать сообщения:    
    Ответить на тему

    Текущее время: Сегодня, в 03:05

    Часовой пояс: GMT + 2



    Вы не можете начинать темы
    Вы не можете отвечать на сообщения
    Вы не можете редактировать свои сообщения
    Вы не можете удалять свои сообщения
    Вы не можете голосовать в опросах
    Вы не можете прикреплять файлы к сообщениям
    Вы не можете скачивать файлы