BitTorrentTracker PerecTracker.org
BitTorrentTracker PerecTracker.org
    
Регистрация  ·  Вход
 
 · 
Забыли пароль?

  • Шерлок / Sherlock / Сезон: 1-3 (3) / Серии: 1-9 (9) (Пол Макгиган, Евро Лин) [2010-2014, триллер, драма, криминал, детектив, BDRip 1080p] Dub (Первый канал) + Original

    Ответить на тему
     
    Автор Сообщение

    rechyn

    Создавать темы 02-Фев-2016 13:47

           

    [Цитировать]

    Шерлок / SherlockСтрана: Великобритания
    Жанр: триллер, драма, криминал, детектив
    Годы выпуска: 2010-2014
    Сезоны: 1-3 (3)
    Серии: 1-9 (9)
    Продолжительность: ~01:28:00
    Перевод: Профессиональный (дублированный) Первый канал
    Режиссёры: Пол Макгиган, Евро Лин
    В ролях: Бенедикт Камбербэтч, Мартин Фриман, Уна Стаббс, Руперт Грейвз, Лу Брили, Марк Гатисс, Эндрю Скотт, Джонатан Арис, Винетт Робинсон, Аманда Аббингтон, Таня [цензура], Зои Телфорд
    Описание: Лондон, 2010 год. Джон Ватсон возвращается домой после службы в Афганистане. Залечивая раны, он никак не может найти своё место в мирной жизни. Старый друг знакомит его с загадочным и эксцентричным Шерлоком Холмсом, который ищет соседа по квартире. Согласившись стать соседом Шерлока, Джон оказывается втянут в целый водоворот невероятных детективных историй.
    Доп. информация: Лицензия от Лизарда, локализация видеоряда у них своя.
    Ссылка на предыдущие и альтернативные раздачи.
    Сэмпл: http://multi-up.com/1029495

    Качество: BDRip 1080p (Рип с BluRay 1080i)
    Контейнер: MKV
    Видео: AVC, 1920x1080 (16:9), 25 fps, ~5655 kbps
    Аудио 1: Rus, AC3, 48 kHz, 2ch, 224 kbps
    Аудио 2: Eng, AC3, 48 kHz, 2ch, 224 kbps
    Субтитры: отсутствуют

    Список серий

    1.1. Этюд в розовых тонах / A Study in Pink
    1.2. Слепой банкир / The Blind Banker
    1.3. Большая игра / The Great Game
    2.1. Скандал в Белгравии / A Scandal in Belgravia
    2.2. Собаки Баскервиля / The Hounds of Baskerville
    2.3. Рейхенбахский водопад / The Reichenbach Fall
    3.1. Пустой катафалк / The Empty Hearse
    3.2. Знак трех / The Sign of Three
    3.3. Его прощальный обет / His Last Vow

    Скриншоты

    x264 log

    x264 [info]: frame I:928 Avg QP:15.33 size:150052
    x264 [info]: frame P:30407 Avg QP:18.66 size: 50839
    x264 [info]: frame B:100714 Avg QP:20.74 size: 21143
    x264 [info]: consecutive B-frames: 2.7% 3.5% 11.7% 17.8% 14.0% 41.8% 6.1% 1.0% 0.5% 0.3% 0.2% 0.2% 0.0% 0.1% 0.0% 0.0% 0.0%

    MediaInfo

    Общее
    Уникальный идентификатор : 203315529878450900329197101074849318078 (0x98F5258F20606A858AABC98BDB41C4BE)
    Полное имя : D:\Video\Sherlock 1-3\sherlock.s01e01.bdrip.1080p.lizard.mkv
    Формат : Matroska
    Версия формата : Version 4 / Version 2
    Размер файла : 3,83 Гбайт
    Продолжительность : 1 ч. 28 м.
    Общий поток : 6227 Кбит/сек
    Дата кодирования : UTC 2015-01-27 07:39:58
    Программа кодирования : mkvmerge v7.2.0 ('On Every Street') 32bit built on Sep 13 2014 15:42:11
    Библиотека кодирования : libebml v1.3.0 + libmatroska v1.4.1
    DURATION : 01:28:02.016000000
    NUMBER_OF_FRAMES : 165063
    NUMBER_OF_BYTES : 147896448
    _STATISTICS_WRITING_APP : mkvmerge v7.2.0 ('On Every Street') 32bit built on Sep 13 2014 15:42:11
    _STATISTICS_WRITING_DATE_UTC : 2015-01-27 07:39:58
    _STATISTICS_TAGS : BPS DURATION NUMBER_OF_FRAMES NUMBER_OF_BYTES
    Видео
    Идентификатор : 1
    Формат : AVC
    Формат/Информация : Advanced Video Codec
    Профиль формата : High@L4.1
    Параметр CABAC формата : Да
    Параметр ReFrames формата : 4 кадра
    Идентификатор кодека : V_MPEG4/ISO/AVC
    Продолжительность : 1 ч. 28 м.
    Битрейт : 5655 Кбит/сек
    Ширина : 1920 пикселей
    Высота : 1080 пикселей
    Соотношение сторон : 16:9
    Режим частоты кадров : Постоянный
    Частота кадров : 25,000 кадров/сек
    Цветовое пространство : YUV
    Субдискретизация насыщенности : 4:2:0
    Битовая глубина : 8 бит
    Тип развёртки : Прогрессивная
    Бит/(Пиксели*Кадры) : 0.109
    Размер потока : 3,48 Гбайт (91%)
    Библиотека кодирования : x264 core 142 r2479 dd79a61
    Настройки программы : cabac=1 / ref=4 / deblock=1:-1:-1 / analyse=0x3:0x133 / me=tesa / subme=11 / psy=1 / psy_rd=1.00:0.15 / mixed_ref=1
    / me_range=24 / chroma_me=1 / trellis=2 / 8x8dct=1 / cqm=0 / deadzone=21,11 / fast_pskip=0 / chroma_qp_offset=-3 / threads=12 / lookahead_threads=3
    / sliced_threads=0 / nr=0 / decimate=1 / interlaced=0 / bluray_compat=0 / constrained_intra=0 / bframes=16 / b_pyramid=2 / b_adapt=2 / b_bias=0 / direct=3
    / weightb=1 / open_gop=0 / weightp=2 / keyint=250 / keyint_min=25 / scenecut=40 / intra_refresh=0 / rc_lookahead=60 / rc=crf / mbtree=1 / crf=19.0
    / qcomp=0.60 / qpmin=0 / qpmax=69 / qpstep=4 / vbv_maxrate=62500 / vbv_bufsize=78125 / crf_max=0.0 / nal_hrd=none / filler=0 / ip_ratio=1.40 / aq=1:1.00
    Язык : Russian
    Default : Да
    Forced : Нет
    Основные цвета : BT.709
    Характеристики трансфера : BT.709
    Коэффициенты матрицы : BT.709
    Аудио #1
    Идентификатор : 2
    Формат : AC-3
    Формат/Информация : Audio Coding 3
    Расширение режима : CM (complete main)
    Параметр Endianness формата : Big
    Идентификатор кодека : A_AC3
    Продолжительность : 1 ч. 28 м.
    Вид битрейта : Постоянный
    Битрейт : 224 Кбит/сек
    Каналы : 2 канала
    Расположение каналов : Front: L R
    Частота : 48,0 КГц
    Битовая глубина : 16 бит
    Метод сжатия : С потерями
    Задержка видео : -80 мс.
    Размер потока : 141 Мбайт (4%)
    Язык : Russian
    Default : Да
    Forced : Нет
    Аудио #2
    Идентификатор : 3
    Формат : AC-3
    Формат/Информация : Audio Coding 3
    Расширение режима : CM (complete main)
    Параметр Endianness формата : Big
    Идентификатор кодека : A_AC3
    Продолжительность : 1 ч. 28 м.
    Вид битрейта : Постоянный
    Битрейт : 224 Кбит/сек
    Каналы : 2 канала
    Расположение каналов : Front: L R
    Частота : 48,0 КГц
    Битовая глубина : 16 бит
    Метод сжатия : С потерями
    Задержка видео : -80 мс.
    Размер потока : 141 Мбайт (4%)
    Язык : English
    Default : Нет
    Forced : Нет
    Скачать .torrent

    Скачать торрент-файл бесплатно и на максимальной скорости!

    Как скачивать? · Что такое торрент? · Рейтинг и ограничения

    !ВНИМАНИЕ!
    Сайт не распространяет и не хранит электронные версии произведений, а занимается лишь лишь предоставлением доступа к создаваемому пользователями каталогу ссылок на торрент-файлы, которые содержат только списки хеш-сумм, убедительная просьба с жалобами обращаться напрямую к пользователю. Файлы для обмена на трекере предоставлены пользователями сайта, и администрация не несёт ответственности за их содержание. Просьба не заливать файлы, защищенные авторскими правами, а также файлы нелегального содержания!


    _________________
    [Профиль] [ЛС]
    Показать сообщения:    
    Ответить на тему

    Текущее время: Сегодня, в 16:24

    Часовой пояс: GMT + 2



    Вы не можете начинать темы
    Вы не можете отвечать на сообщения
    Вы не можете редактировать свои сообщения
    Вы не можете удалять свои сообщения
    Вы не можете голосовать в опросах
    Вы не можете прикреплять файлы к сообщениям
    Вы не можете скачивать файлы