BitTorrentTracker PerecTracker.org
BitTorrentTracker PerecTracker.org
    
Регистрация  ·  Вход
 
 · 
Забыли пароль?

  • Карточный Домик / House of Cards / Сезоны: 1-3 / Серии: 1-39 из 39 (Джеймс Фоули, Джон Дэвид Коулз, Карл Франклин) [2013-2015, драма, HDRip] MVO (Первый канал) + Original + Subs (Rus, Eng)

    Ответить на тему
     
    Автор Сообщение

    rechyn

    Создавать темы 02-Фев-2016 13:33

           

    [Цитировать]

    --Карточный Домик | House of Cards--• Год выпуска: 2013-2015
    • Страна: США
    • Жанр: драма
    • Продолжительность: ~ 00:43:00-• Перевод: Профессиональный (многоголосый закадровый) | Первый канал-• Режиссёр: Джеймс Фоули, Джон Дэвид Коулз, Карл Франклин-• В ролях: Кевин Спейси, Робин Райт, Кейт Мара, Кори Столл, Майкл Келли, Сакина Джэффри, Ларри Пайн, Джейн Эткинсон, Кевин Килнер, Жаклин Джонс, Рюэл Пендлтон, Гилберт Сото, Кристен Коннолли, Сандрин Холт, Махершалалхашбаз Али, Майкл Гилл, Рэйчел Броснахэн, Бен Дэниелс, Тони Сайпресс, Констанс Зиммер-• Описание: Безжалостный конгрессмен, Фрэнсис Андервуд, и его амбициозная жена Клэр, не остановятся ни перед чем, чтобы завоевать все. Эта жестокая политическая драма пропитанная жадностью, сексом, любовью и коррупцией.--Ссылка на предыдущие и альтернативные раздачи-• Качество: HDRip
    • Формат: AVI
    • Видео: XviD, 704x352, 23,976 fps, ~1500 kbps
    • Аудио #1: AC3, 48 kHz, 2 ch, 192 kbps, CBR - Rus
    • Аудио #2: AC3, 48 kHz, 2 ch, 192 kbps, CBR - Eng
    • Субтитры: Русские (Амедиа), английские-

    ✘ Релиз ✘

    Релиз • qqss44
    • рип: qqss44
    • Синхронизация звука: Nez, messafan, BenderBEST
    • За предоставленный звук спасибо: Nez, tryblood
    • Синхронизация субтитров: BenderBEST
    • За предоставленные субтитры: tryblood

    ✘ MediaInfo ✘

    Общее
    Полное имя                               : X:\ATorrent\House of Cards\Season 01\House.of.Cards.S01E01.XviD.1TV.[qqss44].avi
    Формат                                   : AVI
    Формат/Информация                        : Audio Video Interleave
    Размер файла                             : 740 Мбайт
    Продолжительность                        : 55 м.
    Общий поток                              : 1849 Кбит/сек
    Программа кодирования                    : VirtualDubMod 1.5.10.3 | www.virtualdub-fr.org || (build 2550/release)
    Библиотека кодирования                   : VirtualDubMod build 2550/release
    Видео
    Идентификатор                            : 0
    Формат                                   : MPEG-4 Visual
    Профиль формата                          : Advanced Simple@L5
    Параметр BVOP формата                    : 2
    Параметр QPel формата                    : Нет
    Параметр GMC формата                     : Без точки перехода
    Параметр матрицы формата                 : Default (MPEG)
    Идентификатор кодека                     : XVID
    Идентификатор кодека/Подсказка           : XviD
    Продолжительность                        : 55 м.
    Битрейт                                  : 1450 Кбит/сек
    Ширина                                   : 704 пикселя
    Высота                                   : 352 пикселя
    Соотношение сторон                       : 2,000
    Частота кадров                           : 23,976 кадра/сек
    Цветовое пространство                    : YUV
    Субдискретизация насыщенности            : 4:2:0
    Битовая глубина                          : 8 бит
    Тип развёртки                            : Прогрессивная
    Метод сжатия                             : С потерями
    Бит/(Пиксели*Кадры)                      : 0.244
    Размер потока                            : 580 Мбайт (78%)
    Библиотека кодирования                   : XviD 73
    Аудио #1
    Идентификатор                            : 1
    Формат                                   : AC-3
    Формат/Информация                        : Audio Coding 3
    Расширение режима                        : CM (complete main)
    Параметр Endianness формата              : Big
    Идентификатор кодека                     : 2000
    Продолжительность                        : 55 м.
    Вид битрейта                             : Постоянный
    Битрейт                                  : 192 Кбит/сек
    Каналы                                   : 2 канала
    Расположение каналов                     : Front: L R
    Частота                                  : 48,0 КГц
    Метод сжатия                             : С потерями
    Размер потока                            : 76,8 Мбайт (10%)
    Выравнивание                             : Разделение по промежуткам
    Продолжительность промежутка             : 42  мс. (1,00 видеокадр)
    Время предзагрузки промежутка            : 500  мс.
    Аудио #2
    Идентификатор                            : 2
    Формат                                   : AC-3
    Формат/Информация                        : Audio Coding 3
    Расширение режима                        : CM (complete main)
    Параметр Endianness формата              : Big
    Идентификатор кодека                     : 2000
    Продолжительность                        : 55 м.
    Вид битрейта                             : Постоянный
    Битрейт                                  : 192 Кбит/сек
    Каналы                                   : 2 канала
    Расположение каналов                     : Front: L R
    Частота                                  : 48,0 КГц
    Метод сжатия                             : С потерями
    Размер потока                            : 76,8 Мбайт (10%)
    Выравнивание                             : Разделение по промежуткам
    Продолжительность промежутка             : 42  мс. (1,00 видеокадр)
    Время предзагрузки промежутка            : 500  мс.

    ✘ Скриншоты ✘

    -
    Скачать .torrent

    Скачать торрент-файл бесплатно и на максимальной скорости!

    Как скачивать? · Что такое торрент? · Рейтинг и ограничения

    !ВНИМАНИЕ!
    Сайт не распространяет и не хранит электронные версии произведений, а занимается лишь лишь предоставлением доступа к создаваемому пользователями каталогу ссылок на торрент-файлы, которые содержат только списки хеш-сумм, убедительная просьба с жалобами обращаться напрямую к пользователю. Файлы для обмена на трекере предоставлены пользователями сайта, и администрация не несёт ответственности за их содержание. Просьба не заливать файлы, защищенные авторскими правами, а также файлы нелегального содержания!


    _________________
    [Профиль] [ЛС]
    Показать сообщения:    
    Ответить на тему

    Текущее время: Сегодня, в 02:32

    Часовой пояс: GMT + 2



    Вы не можете начинать темы
    Вы не можете отвечать на сообщения
    Вы не можете редактировать свои сообщения
    Вы не можете удалять свои сообщения
    Вы не можете голосовать в опросах
    Вы не можете прикреплять файлы к сообщениям
    Вы не можете скачивать файлы