BitTorrentTracker PerecTracker.org
BitTorrentTracker PerecTracker.org
    
Регистрация  ·  Вход
 
 · 
Забыли пароль?

  • Защитники веры / Гражданская война в Испании в цвете / Defensores de la Fe / Defenders of the Faith (Рассел Палмер) [1938, кинохроника, документальный, DVDRip]

    Ответить на тему
     
    Автор Сообщение

    Columb

    Создавать темы 28-Дек-2013 18:30

           

    [Цитировать]

    Защитники веры | Гражданская война в Испании в цвете | Defensores de la Fe | Defenders of the Faith-Год выпуска: 1938
    Страна: Испания, США
    Жанр: кинохроника, документальный
    Продолжительность: 01:17:09
    Аудиодорожка: испанская
    Перевод: отсутствует (не требуется)
    Русские субтитры: нет-Режиссер: Рассел Палмер-Описание: фильм 1938 года Рассела Палмера о гражданской войне в Испании снятой на цветную плёнку. Рассел Палмер был редактором профранкиских журналов в США - "Cara al sol" и "Spain". Разрешение о съёмках этого фильма он получил от самого Франко. В фильм вошли съёмки воздушных боёв, бомбардировки окопов и танков республиканцев, отдых между боями солдат Франко, съёмки мавританских войск и многое другое.-Сэмпл: http://yadi.sk/d/6qbE1MAIF6UAm-Автор рипа: John-88-качество: DVDRip
    формат: MKV
    Видео: MPEG4 Video (H264) 704x528 25fps 1500Kbps
    Аудио: MP3 48000Hz stereo 128Kbps-

    MediaInfo

    Формат : Matroska
    Версия формата : Version 2
    Размер файла : 892 Мбайт
    Продолжительность : 1 ч. 17 м.
    Режим общего битрейта : Переменный
    Общий поток : 1616 Кбит/сек
    Дата кодирования : UTC 2013-12-27 06:57:33
    Программа кодирования : mkvmerge v5.0.1 ('Es ist Sommer') built on Nov 6 2011 16:23:40
    Библиотека кодирования : libebml v1.2.2 + libmatroska v1.3.0
    Видео
    Идентификатор : 1
    Формат : AVC
    Формат/Информация : Advanced Video Codec
    Профиль формата : High@L3.1
    Параметр CABAC формата : Да
    Параметр ReFrames формата : 8 кадров
    Идентификатор кодека : V_MPEG4/ISO/AVC
    Продолжительность : 1 ч. 17 м.
    Битрейт : 1500 Кбит/сек
    Ширина : 704 пикселя
    Высота : 528 пикселей
    Соотношение сторон : 4:3
    Режим частоты кадров : Постоянный
    Частота кадров : 25,000 кадров/сек
    Цветовое пространство : YUV
    Субдискретизация насыщенности : 4:2:0
    Битовая глубина : 8 бит
    Тип развёртки : Прогрессивная
    Бит/(Пиксели*Кадры) : 0.161
    Размер потока : 811 Мбайт (91%)
    Библиотека кодирования : x264 core 119 r2106 07efeb4
    Настройки программы : cabac=1 / ref=8 / deblock=1:-1:-1 / analyse=0x3:0x133 / me=umh / subme=7 / psy=1 / psy_rd=1.00:0.10 / mixed_ref=1 / me_range=16 / chroma_me=1 / trellis=2 / 8x8dct=1 / cqm=0 / deadzone=21,11 / fast_pskip=0 / chroma_qp_offset=-3 / threads=3 / sliced_threads=0 / nr=0 / decimate=1 / interlaced=0 / bluray_compat=0 / constrained_intra=0 / bframes=3 / b_pyramid=2 / b_adapt=2 / b_bias=0 / direct=3 / weightb=1 / open_gop=0 / weightp=2 / keyint=250 / keyint_min=25 / scenecut=40 / intra_refresh=0 / rc_lookahead=50 / rc=2pass / mbtree=1 / bitrate=1500 / ratetol=1.0 / qcomp=0.60 / qpmin=0 / qpmax=69 / qpstep=4 / cplxblur=20.0 / qblur=0.5 / ip_ratio=1.40 / aq=1:1.00
    Default : Да
    Forced : Нет
    Аудио
    Идентификатор : 2
    Формат : MPEG Audio
    Версия формата : Version 1
    Профиль формата : Layer 3
    Режим : Joint stereo
    Расширение режима : MS Stereo
    Идентификатор кодека : A_MPEG/L3
    Идентификатор кодека/Подсказка : MP3
    Продолжительность : 1 ч. 17 м.
    Вид битрейта : Переменный
    Битрейт : 113 Кбит/сек
    Номинальный битрейт : 128 Кбит/сек
    Каналы : 2 канала
    Частота : 48,0 КГц
    Метод сжатия : С потерями
    Размер потока : 62,5 Мбайт (7%)
    Библиотека кодирования : L3.99r
    Настройки программы : -m j -V 4 -q 2 -lowpass 17 --abr 128
    Default : Да
    Forced : Нет

    Скриншоты


    Скачать .torrent

    Скачать торрент-файл бесплатно и на максимальной скорости!

    Как скачивать? · Что такое торрент? · Рейтинг и ограничения

    !ВНИМАНИЕ!
    Сайт не распространяет и не хранит электронные версии произведений, а занимается лишь лишь предоставлением доступа к создаваемому пользователями каталогу ссылок на торрент-файлы, которые содержат только списки хеш-сумм, убедительная просьба с жалобами обращаться напрямую к пользователю. Файлы для обмена на трекере предоставлены пользователями сайта, и администрация не несёт ответственности за их содержание. Просьба не заливать файлы, защищенные авторскими правами, а также файлы нелегального содержания!

    [Профиль] [ЛС]
    Показать сообщения:    
    Ответить на тему

    Текущее время: Сегодня, в 04:08

    Часовой пояс: GMT + 2



    Вы не можете начинать темы
    Вы не можете отвечать на сообщения
    Вы не можете редактировать свои сообщения
    Вы не можете удалять свои сообщения
    Вы не можете голосовать в опросах
    Вы не можете прикреплять файлы к сообщениям
    Вы не можете скачивать файлы