BitTorrentTracker PerecTracker.org
BitTorrentTracker PerecTracker.org
    
Регистрация  ·  Вход
 
 · 
Забыли пароль?

  • Люди будут съедены / Mennesker bliver spist (Эрик Клаусен / Erik Clausen) [2015, Дания, драма, комедия, DVDRip] VO

    Ответить на тему
     
    Автор Сообщение

    rechyn

    Создавать темы 02-Фев-2016 00:07

           

    [Цитировать]

    Люди будут съедены / Mennesker bliver spist
    Страна: Дания
    Жанр: драма, комедия
    Год выпуска: 2015
    Продолжительность: 01:39:33
    Перевод: Одноголосый закадровый (Валерий Феодосов)
    Cубтитры: нет
    Режиссер: Эрик Клаусен / Erik Clausen
    В ролях: Бодиль Йоргенсен, Эрик Клаусен, Лерке Винтер Андерсен, Расмус Ботофт, Лейф Сюльвестер Петерсен, Николас Бро, Шарлотте Фик, Стеэн Стиг Ломмер, Хелле Рюслинге
    Описание: У далеко немолодого автомеханика Херлуфа наступила чёрная полоса в жизни. Он начинает совершать серьёзные оплошности на работе. Жена отдаляется от него. Появляются первые симптомы тяжёлой болезни. В один прекрасный день Херлуф ушёл из дома и не вернулся. Жене и родственникам предстоит во многом разобраться.
    Доп. информация: Русские субтитры - adelstein_s
    Использованный релиз:http://perectracker.org/viewtopic.php?t=5061013
    Сэмпл: http://sendfile.su/1199784
    Качество видео: DVDRip
    Формат видео: AVI
    Видео: 720x368 (1,957:1), 25 fps, XviD, ~1825 Kbps avg, 0,27 bit/pixel
    Аудио: 48 kHz, MPEG Layer 3, 2 ch, ~192.00 kbps avg

    MediaInfo

    Format : AVI
    Format/Info : Audio Video Interleave
    File size : 1.41 GiB
    Duration : 1h 39mn
    Overall bit rate : 2 026 Kbps
    Writing library : VirtualDub build 35486/release
    Video #0
    ID : 0
    Format : MPEG-4 Visual
    Format profile : Advanced Simple@L5
    Format settings, BVOP : 2
    Format settings, QPel : No
    Format settings, GMC : No warppoints
    Format settings, Matrix : Default (H.263)
    Codec ID : XVID
    Codec ID/Hint : XviD
    Duration : 1h 39mn
    Bit rate : 1 825 Kbps
    Width : 720 pixels
    Height : 368 pixels
    Display aspect ratio : 1.957
    Frame rate : 25.000 fps
    Color space : YUV
    Chroma subsampling : 4:2:0
    Bit depth : 8 bits
    Scan type : Progressive
    Compression mode : Lossy
    Bits/(Pixel*Frame) : 0.275
    Stream size : 1.27 GiB (90%)
    Writing library : XviD 58
    Audio #1
    ID : 1
    Format : MPEG Audio
    Format version : Version 1
    Format profile : Layer 3
    Mode : Joint stereo
    Codec ID : 55
    Codec ID/Hint : MP3
    Duration : 1h 39mn
    Bit rate mode : Constant
    Bit rate : 192 Kbps
    Channel(s) : 2 channels
    Sampling rate : 48.0 KHz
    Compression mode : Lossy
    Stream size : 137 MiB (9%)
    Alignment : Split accross interleaves
    Interleave, duration : 40 ms (1.00 video frame)
    Interleave, preload duration : 500 ms

    Скриншот c названием фильма

    Скриншоты

    Скачать .torrent

    Скачать торрент-файл бесплатно и на максимальной скорости!

    Как скачивать? · Что такое торрент? · Рейтинг и ограничения

    !ВНИМАНИЕ!
    Сайт не распространяет и не хранит электронные версии произведений, а занимается лишь лишь предоставлением доступа к создаваемому пользователями каталогу ссылок на торрент-файлы, которые содержат только списки хеш-сумм, убедительная просьба с жалобами обращаться напрямую к пользователю. Файлы для обмена на трекере предоставлены пользователями сайта, и администрация не несёт ответственности за их содержание. Просьба не заливать файлы, защищенные авторскими правами, а также файлы нелегального содержания!


    _________________
    [Профиль] [ЛС]
    Показать сообщения:    
    Ответить на тему

    Текущее время: Сегодня, в 06:33

    Часовой пояс: GMT + 2



    Вы не можете начинать темы
    Вы не можете отвечать на сообщения
    Вы не можете редактировать свои сообщения
    Вы не можете удалять свои сообщения
    Вы не можете голосовать в опросах
    Вы не можете прикреплять файлы к сообщениям
    Вы не можете скачивать файлы