BitTorrentTracker PerecTracker.org
BitTorrentTracker PerecTracker.org
    
Регистрация  ·  Вход
 
 · 
Забыли пароль?

  • Громче слов / Louder Than Words (Энтони Фабиан / Anthony Fabian) [2013, США, драма, семейный, HDRip-AVC] VO (М. Чадов) + Original Eng

    Ответить на тему
     
    Автор Сообщение

    rechyn

    Создавать темы 01-Фев-2016 15:59

           

    [Цитировать]

    Громче слов / Louder Than Words
    Страна: США
    Жанр: драма, семейный
    Год выпуска: 2013
    Продолжительность: 01:33:10
    Перевод: Одноголосый закадровый (М. Чадов)
    Cубтитры: нет
    Оригинальная аудиодорожка: английский
    Режиссер: Энтони Фабиан / Anthony Fabian
    В ролях: Аделаида Кейн, Дэвид Духовны, Хоуп Дэвис, Ксандер Беркли, Тимоти Хаттон, Скотт Коэн, Крэйг Бирко, Бен Розенфилд, Виктория Теннант, Морган Гриффин
    Описание: Двое родителей пытаются оправиться от внезапной смерти своей дочери. Эта трагедия стала источником вдохновения, нашедшего выход в создании всемирно известной Детской больницы Марии Фарери.
    Доп. информация: озвучка М.Чадова по готовым субтитрам. Работа со звуком - sashock86.
    Сэмпл: http://multi-up.com/1087137
    Качество видео: HDRip-AVC
    Формат видео: MKV
    Видео: x264 High@L4.1, 992x416, 23,976 fps, 2453 kbps, 0.248 bit/pixel
    Аудио 1: AC3, 5.1 ch, 48 kHz, 448 kbps [Russian]
    Аудио 2: AC3, 5.1 ch, 48 kHz, 448 kbps [English]

    MediaInfo

    Общее
    Уникальный идентификатор : 178994337205889943595517463074233781350 (0x86A90E2E0AF33C54BEBFC2A5E1E20C66)
    Полное имя : Louder Than Words.2013.HDRip-AVC.AC3.mkv
    Формат : Matroska
    Версия формата : Version 4 / Version 2
    Размер файла : 2,18 Гбайт
    Продолжительность : 1 ч. 33 м.
    Общий поток : 3351 Кбит/сек
    Дата кодирования : UTC 2016-01-24 20:47:42
    Программа кодирования : mkvmerge v8.1.0 ('Psychedelic Postcard') 64bit
    Библиотека кодирования : libebml v1.3.1 + libmatroska v1.4.2
    DURATION : 01:33:10.944000000
    NUMBER_OF_FRAMES : 174717
    NUMBER_OF_BYTES : 313092864
    _STATISTICS_WRITING_APP : mkvmerge v8.1.0 ('Psychedelic Postcard') 64bit
    _STATISTICS_WRITING_DATE_UTC : 2016-01-24 20:47:42
    _STATISTICS_TAGS : BPS DURATION NUMBER_OF_FRAMES NUMBER_OF_BYTES
    Видео
    Идентификатор : 1
    Формат : AVC
    Формат/Информация : Advanced Video Codec
    Профиль формата : High@L4.1
    Параметр CABAC формата : Да
    Параметр ReFrames формата : 6 кадров
    Идентификатор кодека : V_MPEG4/ISO/AVC
    Продолжительность : 1 ч. 33 м.
    Битрейт : 2453 Кбит/сек
    Ширина : 992 пикселя
    Высота : 416 пикселей
    Соотношение сторон : 2,40:1
    Режим частоты кадров : Постоянный
    Частота кадров : 23,976 кадра/сек
    Цветовое пространство : YUV
    Субдискретизация насыщенности : 4:2:0
    Битовая глубина : 8 бит
    Тип развёртки : Прогрессивная
    Бит/(Пиксели*Кадры) : 0.248
    Размер потока : 1,55 Гбайт (71%)
    Библиотека кодирования : x264 core 148 r2638 7599210
    Настройки программы : cabac=1 / ref=7 / deblock=1:-3:-3 / analyse=0x3:0x113 / me=umh / subme=11 / psy=1 / psy_rd=1.00:0.00 / mixed_ref=1 / me_range=32 / chroma_me=1 / trellis=2 / 8x8dct=1 / cqm=0 / deadzone=21,11 / fast_pskip=0 / chroma_qp_offset=-2 / threads=6 / lookahead_threads=1 / sliced_threads=0 / nr=0 / decimate=1 / interlaced=0 / bluray_compat=0 / constrained_intra=0 / bframes=9 / b_pyramid=1 / b_adapt=2 / b_bias=0 / direct=1 / weightb=1 / open_gop=0 / weightp=2 / keyint=240 / keyint_min=23 / scenecut=40 / intra_refresh=0 / rc_lookahead=40 / rc=2pass / mbtree=1 / bitrate=2453 / ratetol=1.0 / qcomp=0.60 / qpmin=0 / qpmax=69 / qpstep=4 / cplxblur=20.0 / qblur=0.5 / vbv_maxrate=50000 / vbv_bufsize=62500 / nal_hrd=none / filler=0 / ip_ratio=1.40 / aq=1:0.90
    Язык : English
    Default : Да
    Forced : Нет
    Аудио #1
    Идентификатор : 2
    Формат : AC-3
    Формат/Информация : Audio Coding 3
    Расширение режима : CM (complete main)
    Параметр Endianness формата : Big
    Идентификатор кодека : A_AC3
    Продолжительность : 1 ч. 33 м.
    Вид битрейта : Постоянный
    Битрейт : 448 Кбит/сек
    Каналы : 6 каналов
    Расположение каналов : Front: L C R, Side: L R, LFE
    Частота : 48,0 КГц
    Битовая глубина : 16 бит
    Метод сжатия : С потерями
    Размер потока : 299 Мбайт (13%)
    Язык : Russian
    Default : Да
    Forced : Нет
    Аудио #2
    Идентификатор : 3
    Формат : AC-3
    Формат/Информация : Audio Coding 3
    Расширение режима : CM (complete main)
    Параметр Endianness формата : Big
    Идентификатор кодека : A_AC3
    Продолжительность : 1 ч. 33 м.
    Вид битрейта : Постоянный
    Битрейт : 448 Кбит/сек
    Каналы : 6 каналов
    Расположение каналов : Front: L C R, Side: L R, LFE
    Частота : 48,0 КГц
    Битовая глубина : 16 бит
    Метод сжатия : С потерями
    Размер потока : 299 Мбайт (13%)
    Язык : English
    Default : Нет
    Forced : Нет
    Меню
    00:00:00.000 : en:00:00:00.000
    00:07:16.978 : en:00:07:16.978
    00:15:15.957 : en:00:15:15.957
    00:22:04.365 : en:00:22:04.365
    00:28:31.752 : en:00:28:31.752
    00:35:58.198 : en:00:35:58.198
    00:43:22.141 : en:00:43:22.141
    00:51:17.116 : en:00:51:17.116
    01:00:31.670 : en:01:00:31.670
    01:07:50.608 : en:01:07:50.608
    01:13:50.468 : en:01:13:50.468
    01:23:32.049 : en:01:23:32.049

    Скриншоты

    Скачать .torrent

    Скачать торрент-файл бесплатно и на максимальной скорости!

    Как скачивать? · Что такое торрент? · Рейтинг и ограничения

    !ВНИМАНИЕ!
    Сайт не распространяет и не хранит электронные версии произведений, а занимается лишь лишь предоставлением доступа к создаваемому пользователями каталогу ссылок на торрент-файлы, которые содержат только списки хеш-сумм, убедительная просьба с жалобами обращаться напрямую к пользователю. Файлы для обмена на трекере предоставлены пользователями сайта, и администрация не несёт ответственности за их содержание. Просьба не заливать файлы, защищенные авторскими правами, а также файлы нелегального содержания!


    _________________
    [Профиль] [ЛС]
    Показать сообщения:    
    Ответить на тему

    Текущее время: Сегодня, в 10:23

    Часовой пояс: GMT + 2



    Вы не можете начинать темы
    Вы не можете отвечать на сообщения
    Вы не можете редактировать свои сообщения
    Вы не можете удалять свои сообщения
    Вы не можете голосовать в опросах
    Вы не можете прикреплять файлы к сообщениям
    Вы не можете скачивать файлы