BitTorrentTracker PerecTracker.org
BitTorrentTracker PerecTracker.org
    
Регистрация  ·  Вход
 
 · 
Забыли пароль?

  • Прощальная песня любви / Minik Serce (Атиф Йылмаз / Atif Yilmaz) [1978, Турция, музыкальная мелодрама, TVRip] Dub (Киностудия им. М. Горького)

    Ответить на тему
     
    Автор Сообщение

    Columb

    Создавать темы 28-Дек-2013 18:27

           

    [Цитировать]

    Прощальная песня любви / Minik Serce
    Страна: Турция
    Жанр: музыкальная мелодрама
    Год выпуска: 1978
    Продолжительность: 01:18:58
    Перевод: Профессиональный (дублированный) Киностудия им. М. Горького
    Cубтитры: нет
    Оригинальная аудиодорожка: нет
    Режиссер: Атиф Йылмаз / Atif Yilmaz
    В ролях: СЕЗЕН АКСУ
    БУЛУТ АРАС
    ХУЛУСИ КЕНТМЕН
    Хусейн Кутман и др.
    Описание: Популярный певец на вершине славы замечает молодую, никому не известную певицу. Он влюбляется и женится на ней. Очень быстро ее слава затмевает популярность мужа.
    Доп. информация: Релиз
    Фильм дублирован на киностудии имени М. Горького в 1982 году.
    Режиссер дубляжа Ирина Чистова
    Звукооператор Виль Ермолин
    Перевод Марины Гаврилко
    Роли дублируют: Наталья Гурзо, Владимир Антоник, Артем Карапетян, Владимир Ферапонтов, Яков Беленький, Рудольф Панков и др.
    Звук с прокатной копии, обнаруженной в сети, наложен на турецкий телерип. Один эпизод, отсутствовавший в турецкой версии, вставлен из советской прокатной версии (VHS).
    Сэмпл: http://sendfile.su/915281
    Качество видео: TVRip
    Формат видео: AVI
    Видео: Xvid, 512x384, 4:3, 25 fps, 1958 kbps
    Аудио: AC3, 48 кГц, 192 кбпс, 2/0

    MediaInfo

    Общее
    Полное имя : D:\Готовые проекты\Прощальная песня любви\Прощальная песня любви. Турция.1978.дубляж.avi
    Формат : AVI
    Формат/Информация : Audio Video Interleave
    Размер файла : 1,08 Гбайт
    Продолжительность : 1 ч. 18 м.
    Общий поток : 1958 Кбит/сек
    Программа кодирования : VirtualDubMod 1.5.10.2 (build 2540/release)
    Библиотека кодирования : VirtualDubMod build 2540/release
    Видео
    Идентификатор : 0
    Формат : MPEG-4 Visual
    Профиль формата : Advanced Simple@L5
    Параметр BVOP формата : 1
    Параметр QPel формата : Нет
    Параметр GMC формата : Без точки перехода
    Параметр матрицы формата : Default (H.263)
    Идентификатор кодека : XVID
    Идентификатор кодека/Подсказка : XviD
    Продолжительность : 1 ч. 18 м.
    Битрейт : 1757 Кбит/сек
    Ширина : 512 пикселей
    Высота : 384 пикселя
    Соотношение сторон : 4:3
    Частота кадров : 25,000 кадров/сек
    Цветовое пространство : YUV
    Субдискретизация насыщенности : 4:2:0
    Битовая глубина : 8 бит
    Тип развёртки : Прогрессивная
    Метод сжатия : С потерями
    Бит/(Пиксели*Кадры) : 0.357
    Размер потока : 992 Мбайт (90%)
    Библиотека кодирования : XviD 63
    Аудио
    Идентификатор : 1
    Формат : AC-3
    Формат/Информация : Audio Coding 3
    Профиль формата : Dolby Digital
    Расширение режима : CM (complete main)
    Идентификатор кодека : 2000
    Продолжительность : 1 ч. 18 м.
    Вид битрейта : Постоянный
    Битрейт : 192 Кбит/сек
    Каналы : 2 канала
    Расположение каналов : Front: L R
    Частота : 48,0 КГц
    Битовая глубина : 16 бит
    Метод сжатия : С потерями
    Размер потока : 108 Мбайт (10%)
    Выравнивание : Разделение по промежуткам
    Продолжительность промежутка : 40 мс. (1,00 видеокадр)
    Время предзагрузки промежутка : 500 мс.

    Скриншоты


    Скачать .torrent

    Скачать торрент-файл бесплатно и на максимальной скорости!

    Как скачивать? · Что такое торрент? · Рейтинг и ограничения

    !ВНИМАНИЕ!
    Сайт не распространяет и не хранит электронные версии произведений, а занимается лишь лишь предоставлением доступа к создаваемому пользователями каталогу ссылок на торрент-файлы, которые содержат только списки хеш-сумм, убедительная просьба с жалобами обращаться напрямую к пользователю. Файлы для обмена на трекере предоставлены пользователями сайта, и администрация не несёт ответственности за их содержание. Просьба не заливать файлы, защищенные авторскими правами, а также файлы нелегального содержания!

    [Профиль] [ЛС]
    Показать сообщения:    
    Ответить на тему

    Текущее время: Сегодня, в 22:18

    Часовой пояс: GMT + 2



    Вы не можете начинать темы
    Вы не можете отвечать на сообщения
    Вы не можете редактировать свои сообщения
    Вы не можете удалять свои сообщения
    Вы не можете голосовать в опросах
    Вы не можете прикреплять файлы к сообщениям
    Вы не можете скачивать файлы