BitTorrentTracker PerecTracker.org
BitTorrentTracker PerecTracker.org
    
Регистрация  ·  Вход
 
 · 
Забыли пароль?

  • Короли деревянных домиков / Bouwdorp (Маргиен Рогаар / Margien Rogaar) [2014, Нидерланды, семейный, драма, WEBRip-AVC] VO + Sub Rus + Original Dut

    Ответить на тему
     
    Автор Сообщение

    rechyn

    Создавать темы 01-Фев-2016 11:58

           

    [Цитировать]

    Короли деревянных домиков / Bouwdorp
    Страна: Нидерланды
    Жанр: семейный, драма
    Год выпуска: 2014
    Продолжительность: 01:26:43
    Перевод: Одноголосый закадровый
    Cубтитры: русские
    Оригинальная аудиодорожка: нидерландский
    Режиссер: Маргиен Рогаар / Margien Rogaar
    В ролях: Кеес Ниверф / Kees Nieuwerf, Юлиан Рас / Julian Ras, Bart Reuten, Нейс Вермин / Nijs Vermin, Юри Ван Дам / Yuri van Dam, Тейн Рас / Tijn Ras, Моос ван дер Мелен / Moos van der Meulen, Ноа де Ной / Noah de Nooij, Stefan Perrier, Amy Kitchiner
    Описание: Зигги и Басс были лучшими друзьями на протяжении многих лет, они вместе строили самые лучшие башни к ежегодной битве мальчишек. Но когда они разошлись по разным школам, бывшие друзья неожиданно стали непримиримыми соперниками. Басс с новыми друзьями и Зигги с младшим братом теперь строят свои башни. Соперничество перерастает во вражду, и все готово завершиться трагедией.
    Сэмпл: http://multi-up.com/1087041
    Качество видео: WEBRip-AVC
    Формат видео: AVI
    Видео: 576x320 (1.80:1), 25 fps, Intel ITU H.264 ~1491 kbps avg, 0.32 bit/pixel
    Аудио 1: 48 kHz, MPEG Layer 3, 2 ch, ~192.00 kbps avg(Русский)
    Аудио 2: 48 kHz, MPEG Layer 3, 2 ch, ~192.00 kbps avg(Нидерландский)
    Формат субтитров: softsub (SRT)
    Доп. информация о субтитрах: Русские внешние (r123)

    MediaInfo

    Общее
    Полное имя : F:\С моей озвучкой\Короли деревянных домиков\Bouwdorp.avi
    Формат : AVI
    Формат/Информация : Audio Video Interleave
    Размер файла : 1,15 Гбайт
    Продолжительность : 1 ч. 26 м.
    Общий поток : 1891 Кбит/сек
    Программа кодирования : VirtualDubModRus 1.5.10.2 (build 2542/release)
    Библиотека кодирования : VirtualDubMod build 2542/release
    Видео
    Идентификатор : 0
    Формат : AVC
    Формат/Информация : Advanced Video Codec
    Профиль формата : Baseline@L2.1
    Параметр CABAC формата : Нет
    Параметр ReFrames формата : 2 кадра
    Идентификатор кодека : H264
    Продолжительность : 1 ч. 26 м.
    Битрейт : 1500 Кбит/сек
    Ширина : 576 пикселей
    Высота : 320 пикселей
    Соотношение сторон : 16:9
    Режим частоты кадров : Переменный
    Частота кадров : 25,000 кадров/сек
    Цветовое пространство : YUV
    Субдискретизация насыщенности : 4:2:0
    Битовая глубина : 8 бит
    Тип развёртки : Прогрессивная
    Бит/(Пиксели*Кадры) : 0.326
    Размер потока : 926 Мбайт (79%)
    Библиотека кодирования : x264 core 135
    Настройки программы : cabac=0 / ref=2 / deblock=1:0:0 / analyse=0x1:0x111 / me=hex / subme=4 / psy=1 / psy_rd=1.00:0.00 / mixed_ref=0 / me_range=16 / chroma_me=1 / trellis=1 / 8x8dct=0 / cqm=0 / deadzone=21,11 / fast_pskip=1 / chroma_qp_offset=0 / threads=3 / lookahead_threads=1 / sliced_threads=0 / nr=0 / decimate=1 / interlaced=0 / bluray_compat=0 / constrained_intra=0 / bframes=0 / weightp=0 / keyint=250 / keyint_min=25 / scenecut=40 / intra_refresh=0 / rc_lookahead=20 / rc=abr / mbtree=1 / bitrate=1500 / ratetol=1.0 / qcomp=0.60 / qpmin=0 / qpmax=69 / qpstep=4 / ip_ratio=1.40 / aq=1:1.00
    Аудио #1
    Идентификатор : 1
    Формат : MPEG Audio
    Версия формата : Version 1
    Профиль формата : Layer 3
    Режим : Joint stereo
    Расширение режима : MS Stereo
    Идентификатор кодека : 55
    Идентификатор кодека/Подсказка : MP3
    Продолжительность : 1 ч. 26 м.
    Вид битрейта : Постоянный
    Битрейт : 192 Кбит/сек
    Каналы : 2 канала
    Частота : 48,0 КГц
    Метод сжатия : С потерями
    Размер потока : 119 Мбайт (10%)
    Выравнивание : Соединение по промежуткам
    Продолжительность промежутка : 40 мс. (1,00 видеокадр)
    Время предзагрузки промежутка : 504 мс.
    Библиотека кодирования : LAME3.96
    Аудио #2
    Идентификатор : 2
    Формат : MPEG Audio
    Версия формата : Version 1
    Профиль формата : Layer 3
    Режим : Joint stereo
    Расширение режима : MS Stereo
    Идентификатор кодека : 55
    Идентификатор кодека/Подсказка : MP3
    Продолжительность : 1 ч. 26 м.
    Вид битрейта : Постоянный
    Битрейт : 192 Кбит/сек
    Каналы : 2 канала
    Частота : 48,0 КГц
    Метод сжатия : С потерями
    Размер потока : 119 Мбайт (10%)
    Выравнивание : Соединение по промежуткам
    Продолжительность промежутка : 40 мс. (1,00 видеокадр)
    Время предзагрузки промежутка : 504 мс.

    Скриншоты

    Скачать .torrent

    Скачать торрент-файл бесплатно и на максимальной скорости!

    Как скачивать? · Что такое торрент? · Рейтинг и ограничения

    !ВНИМАНИЕ!
    Сайт не распространяет и не хранит электронные версии произведений, а занимается лишь лишь предоставлением доступа к создаваемому пользователями каталогу ссылок на торрент-файлы, которые содержат только списки хеш-сумм, убедительная просьба с жалобами обращаться напрямую к пользователю. Файлы для обмена на трекере предоставлены пользователями сайта, и администрация не несёт ответственности за их содержание. Просьба не заливать файлы, защищенные авторскими правами, а также файлы нелегального содержания!


    _________________
    [Профиль] [ЛС]
    Показать сообщения:    
    Ответить на тему

    Текущее время: Сегодня, в 10:55

    Часовой пояс: GMT + 2



    Вы не можете начинать темы
    Вы не можете отвечать на сообщения
    Вы не можете редактировать свои сообщения
    Вы не можете удалять свои сообщения
    Вы не можете голосовать в опросах
    Вы не можете прикреплять файлы к сообщениям
    Вы не можете скачивать файлы