BitTorrentTracker PerecTracker.org
BitTorrentTracker PerecTracker.org
    
Регистрация  ·  Вход
 
 · 
Забыли пароль?

  • Хоббит: Пустошь Смауга / The Hobbit: The Desolation of Smaug (Питер Джексон / Peter Jackson) [2013, США, Новая Зеландия, фэнтези, приключения, DVB] [Therical Cut, Open Matte] Dub

    Ответить на тему
     
    Автор Сообщение

    rechyn

    Создавать темы 31-Янв-2016 23:46

           

    [Цитировать]

    Хоббит: Пустошь Смауга / The Hobbit: The Desolation of Smaug
    Therical Cut, Open Matte
    -Страна: США, Новая Зеландия
    Жанр: фэнтези, приключения
    Год выпуска: 2013
    Продолжительность: 02:24:34 (без финальных титров)
    Перевод: Профессиональный (дублированный)
    Cубтитры: нет
    Оригинальная аудиодорожка: нет
    Режиссер: Питер Джексон / Peter Jackson
    В ролях: Мартин Фриман, Ричард Армитедж, Иэн МакКеллен, Эванджелин Лилли, Орландо Блум, Люк Эванс, Бенедикт Камбербэтч, Ли Пейс, Кен Стотт, Эйдан Тернер, Грэм МакТавиш, Джеймс Несбитт
    Описание: Продолжение путешествия хоббита Бильбо Бэггинса, волшебника Гэндальфа и 13 отважных гномов. Их компания обязана завершить своё путешествие к Одинокой горе. Там они должны встретиться с величайшей опасностью из всех — созданием куда более ужасающим, чем все их прошлые противники, которое проверит на прочность не только их мужество, но крепость их дружбы и правильность выбранного пути, — драконом Смаугом.
    Доп. информация: Собственная запись с ТНТ. Честно скажу, бОльшая часть фильма - обрезок с BD. Но есть ряд сцен в Open Matte. Все, что нашел, в сравнении. Также отличие в полной русификации всех подписей и речи орков/эльфов (также см сравнение)
    http://screenshotcomparison.com/comparison/160181
    Сэмпл: http://multi-up.com/1087034
    Качество видео: DVB
    Формат видео: TS
    Видео: AVC, 720x576, 4:3, 25 fps, 2733 Kbps
    Аудио: Русский (mpa, 2 ch), 48000 Hz, 192 Kbps

    MediaInfo

    Общее
    Идентификатор : 1 (0x1)
    Полное имя : F:\Downloads\Hobbit The Desolation of Smaug Open Matte.ts
    Формат : MPEG-TS
    Размер файла : 3,11 Гбайт
    Продолжительность : 2 ч. 24 м.
    Режим общего битрейта : Переменный
    Общий поток : 3079 Кбит/сек
    Видео
    Идентификатор : 2091 (0x82B)
    Идентификатор меню : 2090 (0x82A)
    Формат : AVC
    Формат/Информация : Advanced Video Codec
    Профиль формата : Main@L3
    Параметр CABAC формата : Да
    Параметр ReFrames формата : 3 кадра
    Параметр GOP формата : M=4, N=28
    Идентификатор кодека : 27
    Продолжительность : 2 ч. 24 м.
    Битрейт : 2733 Кбит/сек
    Ширина : 720 пикселей
    Высота : 576 пикселей
    Соотношение сторон : 4:3
    Частота кадров : 25,000 кадров/сек
    Стандарт вещания : Component
    Цветовое пространство : YUV
    Субдискретизация насыщенности : 4:2:0
    Битовая глубина : 8 бит
    Тип развёртки : Чересстрочная
    Метод сохранения типа развёртки : Раздельные поля
    Порядок развёртки : Верхнее поле первое
    Бит/(Пиксели*Кадры) : 0.264
    Размер потока : 2,76 Гбайт (89%)
    Цветовой диапазон : Limited
    Основные цвета : BT.601 PAL
    Характеристики трансфера : BT.470 System B, BT.470 System G
    Коэффициенты матрицы : BT.601
    Аудио
    Идентификатор : 2092 (0x82C)
    Идентификатор меню : 2090 (0x82A)
    Формат : MPEG Audio
    Версия формата : Version 1
    Профиль формата : Layer 2
    Идентификатор кодека : 3
    Продолжительность : 2 ч. 24 м.
    Вид битрейта : Постоянный
    Битрейт : 192 Кбит/сек
    Каналы : 2 канала
    Частота : 48,0 КГц
    Метод сжатия : С потерями
    Размер потока : 199 Мбайт (6%)
    Язык : English

    Скриншот c названием фильма

    Скриншоты

    Скачать .torrent

    Скачать торрент-файл бесплатно и на максимальной скорости!

    Как скачивать? · Что такое торрент? · Рейтинг и ограничения

    !ВНИМАНИЕ!
    Сайт не распространяет и не хранит электронные версии произведений, а занимается лишь лишь предоставлением доступа к создаваемому пользователями каталогу ссылок на торрент-файлы, которые содержат только списки хеш-сумм, убедительная просьба с жалобами обращаться напрямую к пользователю. Файлы для обмена на трекере предоставлены пользователями сайта, и администрация не несёт ответственности за их содержание. Просьба не заливать файлы, защищенные авторскими правами, а также файлы нелегального содержания!


    _________________
    [Профиль] [ЛС]
    Показать сообщения:    
    Ответить на тему

    Текущее время: Сегодня, в 07:57

    Часовой пояс: GMT + 2



    Вы не можете начинать темы
    Вы не можете отвечать на сообщения
    Вы не можете редактировать свои сообщения
    Вы не можете удалять свои сообщения
    Вы не можете голосовать в опросах
    Вы не можете прикреплять файлы к сообщениям
    Вы не можете скачивать файлы