BitTorrentTracker PerecTracker.org
BitTorrentTracker PerecTracker.org
    
Регистрация  ·  Вход
 
 · 
Забыли пароль?

  • За вратами / Season of the Witch [2016 г., альтернативный перевод, мистика, пародия, DVDRip] [студия deBohpodast'] MVO

    Ответить на тему
     
    Автор Сообщение

    Light

    Создавать темы 31-Янв-2016 23:32

           

    [Цитировать]

    За вратами / Season of the Witch
    Год выпуска: 2016
    Страна: США
    Жанр: мистика, пародия
    Продолжительность: 01:38:23
    Перевод: любительский многоголосый (альтернативный перевод студии deBohpodast')
    Режиссер: Доминик Сена, Гном Пасаран
    В ролях: Николас Кейдж, Рон Перлман, Стивен Кэмпбелл Мур, Стивен Грэм, Ульрих Томсен, Клер Фой, Роберт Шиэн, Кристофер Ли, Ребека Кеннеди, Эндрю Хефлер
    Описание:
    Альтернативный перевод фильма "Время ведьм".
    Средневековая Европа, чума, крестовые походы, охота на ведьм. Два крестоносца берутся отвезти в далёкое аббатство юную крестьянку, в чьём теле якобы заперто древнее могущественное существо, вроде как накликавшее на Европу чуму.
    Семпл
    Примечание автора раздачи:
    Релиз от Альянса Вольных Переводчиков.
    Сиквел альтернативки "По ту сторону" от студии deBohpodast'.
    Официальный сайт
    Кодек: XviD
    Качество: DVDRip
    Видео: 720x400 (1.80:1), 23.976 fps, XviD MPEG-4 ~2232 kbps avg, 0.32 bit/pixel
    Звук: 48 kHz, MPEG Layer 3, 2 ch, ~192.00 kbps avg

    Фильмы, вошедшие в видеоряд

    Время ведьм
    Хроники Нарнии: Принц Каспиан
    Агент Джонни Инглиш: Перезагрузка
    Бесконечная история
    Гарри Поттер и Тайная комната
    Девятые врата
    Имя розы
    Пираты Карибского моря: На странных берегах
    Ученик чародея
    Хеллбой
    Хеллбой 2: Золотая армия
    Хижина в лесу
    Центурион

    MediaInfo

    General
    Complete name : F:\___фильмы\Za.vratami.2016.DVDRip.avi
    Format : AVI
    Format/Info : Audio Video Interleave
    File size : 1.67 GiB
    Duration : 1h 38mn
    Overall bit rate : 2 433 Kbps
    Writing application : VirtualDubMod 1.5.10.2 (build 2540/release)
    Writing library : VirtualDubMod build 2540/release
    Video
    ID : 0
    Format : MPEG-4 Visual
    Format profile : AdvancedSimple@L5
    Format settings, BVOP : Yes
    Format settings, QPel : No
    Format settings, GMC : No warppoints
    Format settings, Matrix : Default (MPEG)
    Codec ID : XVID
    Codec ID/Hint : XviD
    Duration : 1h 38mn
    Bit rate : 2 232 Kbps
    Width : 720 pixels
    Height : 400 pixels
    Display aspect ratio : 16:9
    Frame rate : 23.976 fps
    Resolution : 24 bits
    Colorimetry : 4:2:0
    Scan type : Progressive
    Bits/(Pixel*Frame) : 0.323
    Stream size : 1.53 GiB (92%)
    Writing library : XviD 64
    Audio
    ID : 1
    Format : MPEG Audio
    Format version : Version 1
    Format profile : Layer 3
    Codec ID : 55
    Codec ID/Hint : MP3
    Duration : 1h 38mn
    Bit rate mode : Constant
    Bit rate : 192 Kbps
    Channel(s) : 2 channels
    Sampling rate : 48.0 KHz
    Resolution : 16 bits
    Stream size : 135 MiB (8%)
    Alignment : Aligned on interleaves
    Interleave, duration : 42 ms (1.00 video frame)
    Interleave, preload duration : 504 ms

    Скриншоты

    Релиз от:
    Скачать .torrent

    Скачать торрент-файл бесплатно и на максимальной скорости!

    Как скачивать? · Что такое торрент? · Рейтинг и ограничения

    !ВНИМАНИЕ!
    Сайт не распространяет и не хранит электронные версии произведений, а занимается лишь лишь предоставлением доступа к создаваемому пользователями каталогу ссылок на торрент-файлы, которые содержат только списки хеш-сумм, убедительная просьба с жалобами обращаться напрямую к пользователю. Файлы для обмена на трекере предоставлены пользователями сайта, и администрация не несёт ответственности за их содержание. Просьба не заливать файлы, защищенные авторскими правами, а также файлы нелегального содержания!


    _________________
    [Профиль] [ЛС]
    Показать сообщения:    
    Ответить на тему

    Текущее время: Сегодня, в 12:35

    Часовой пояс: GMT + 2



    Вы не можете начинать темы
    Вы не можете отвечать на сообщения
    Вы не можете редактировать свои сообщения
    Вы не можете удалять свои сообщения
    Вы не можете голосовать в опросах
    Вы не можете прикреплять файлы к сообщениям
    Вы не можете скачивать файлы