BitTorrentTracker PerecTracker.org
BitTorrentTracker PerecTracker.org
    
Регистрация  ·  Вход
 
 · 
Забыли пароль?

  • Весёлая ферма / Signs [2015 г., смешной перевод, комедия, пародия, HDRip] [студия B.D.production] AVO

    Ответить на тему
     
    Автор Сообщение

    Flirldrerve

    Создавать темы 31-Янв-2016 23:29

           

    [Цитировать]

    Весёлая ферма / Signs
    Год выпуска: 2015
    Страна: США
    Жанр: смешной перевод, комедия, пародия
    Продолжительность: 01:39:15
    Перевод: любительский одноголосый (смешной перевод студии B.D.production)
    Режиссер: М. Найт Шьямалан, BadDog
    В ролях: Мэл Гибсон, Хоакин Феникс, Рори Калкин, Эбигейл Бреслин, Черри Джонс, М. Найт Шьямалан, Патриция Кэлембер, Тед Саттон, Меррит Уивер, Лэнни Флаэрти, Мэрион МакКорри, Майкл Шоуолтер
    Описание:
    Смешной перевод фильма "Знаки".
    На ферме братьев Филлипсов, которые в 10-ти километрах от города живут, происходят странные вещи. На кукурузном поле то и дело находят детей, соседние фермеры из зависти по ночам воруют початки с их поля, оставляя после себя огромные круги. Полиция бессильна в этом расследовании. Все становится еще хуже, когда к ним на летающих тарелках прилетают бандиты с целью разворовать их дом. Филлипсы решают отстоять свою землю.
    Семпл
    Примечание автора раздачи:
    Релиз от Альянса Вольных Переводчиков.
    Присутствует нецензурная лексика.
    Официальный сайт
    Файл
    Кодек: XviD
    Качество: HDRip
    Видео: 704x384, 23.976 fps, XviD MPEG-4 ~2 063 kbps avg, 0.318 bit/pixel
    Звук: 48 kHz, MPEG Layer 3, 2 ch, ~192.00 kbps avg

    MediaInfo

    General
    Complete name : D:arpy3ku\Vesyolaya.ferma.2015.HDRip.avi
    Format : AVI
    Format/Info : Audio Video Interleave
    Format profile : OpenDML
    File size : 1.57 GiB
    Duration : 1h 39mn
    Overall bit rate : 2 269 Kbps
    Writing application : Lavf56.4.103
    Video
    ID : 0
    Format : MPEG-4 Visual
    Format profile : Advanced Simple@L5
    Format settings, BVOP : 1
    Format settings, QPel : No
    Format settings, GMC : No warppoints
    Format settings, Matrix : Default (MPEG)
    Codec ID : XVID
    Codec ID/Hint : XviD
    Duration : 1h 39mn
    Bit rate : 2 063 Kbps
    Width : 704 pixels
    Height : 384 pixels
    Display aspect ratio : 1.85:1
    Frame rate : 23.976 fps
    Color space : YUV
    Chroma subsampling : 4:2:0
    Bit depth : 8 bits
    Scan type : Progressive
    Compression mode : Lossy
    Bits/(Pixel*Frame) : 0.318
    Stream size : 1.43 GiB (91%)
    Writing library : XviD 73
    Audio
    ID : 1
    Format : MPEG Audio
    Format version : Version 1
    Format profile : Layer 3
    Mode : Joint stereo
    Codec ID : 55
    Codec ID/Hint : MP3
    Duration : 1h 39mn
    Bit rate mode : Constant
    Bit rate : 192 Kbps
    Channel(s) : 2 channels
    Sampling rate : 48.0 KHz
    Compression mode : Lossy
    Stream size : 136 MiB (8%)
    Alignment : Aligned on interleaves
    Interleave, duration : 24 ms (0.58 video frame)

    Скриншоты

    Релиз от:
    Скачать .torrent

    Скачать торрент-файл бесплатно и на максимальной скорости!

    Как скачивать? · Что такое торрент? · Рейтинг и ограничения

    !ВНИМАНИЕ!
    Сайт не распространяет и не хранит электронные версии произведений, а занимается лишь лишь предоставлением доступа к создаваемому пользователями каталогу ссылок на торрент-файлы, которые содержат только списки хеш-сумм, убедительная просьба с жалобами обращаться напрямую к пользователю. Файлы для обмена на трекере предоставлены пользователями сайта, и администрация не несёт ответственности за их содержание. Просьба не заливать файлы, защищенные авторскими правами, а также файлы нелегального содержания!


    _________________
    [Профиль] [ЛС]
    Показать сообщения:    
    Ответить на тему

    Текущее время: Сегодня, в 12:53

    Часовой пояс: GMT + 2



    Вы не можете начинать темы
    Вы не можете отвечать на сообщения
    Вы не можете редактировать свои сообщения
    Вы не можете удалять свои сообщения
    Вы не можете голосовать в опросах
    Вы не можете прикреплять файлы к сообщениям
    Вы не можете скачивать файлы