BitTorrentTracker PerecTracker.org
BitTorrentTracker PerecTracker.org
    
Регистрация  ·  Вход
 
 · 
Забыли пароль?

  • Молодежка / Сезон: 2 / Серии: 1-40 из 40 (Сергей Арланов) [2014, Драма, спорт, SATRip]

    Ответить на тему
     
    Автор Сообщение

    rechyn

    Создавать темы 31-Янв-2016 23:20

           

    [Цитировать]

    Молодежка
    Год выпуска: 2014
    Производство: Россия, ООО Арт Пикчерс Вижн при поддержке КХЛ
    Жанр: Драма, спорт
    Продолжительность: ~ 00:46:00 / Серия
    Субтитры: Нет
    Режиссёр: Сергей Арланов
    В ролях: Денис Никифоров, Андрей Мерзликин, Михаил Жигалов, Фёдор Бондарчук, Сергей Габриэлян, Владимир Зайцев, Сергей Комаров, Анатолий Кот, Анатолий Лобоцкий, Ксения Лаврова-Глинка, Серафима Низовская, Валентина Ананьина, Макар Запорожский, Александр Соколовский, Влад Канопка, Илья Коробко, Игорь Огурцов, Иван Жвакин, Анна Михайловская, Мария Иващенко, Иван Мулин, Иван Дубровский, Матвей Зубалевич, Валерия Гладилина, Юлия Маргулис, Мария Пирогова
    Описание: Молодежная хоккейная лига или «молодежка» — соревнование, в котором выступают молодежные команды, составленные из игроков в возрасте от 17 до 21 года. Именно чемпионат «молодежки» обеспечивает КХЛ (Континентальную Хоккейную Лигу) «свежей кровью» — талантливыми молодыми хоккеистами. «Медведи» никогда не были топ-командой молодежной лиги. Вратарь слишком умный, защита слишком вялая, а лидеры только и делают, что тянут одеяло на себя. Они умеют вместе выходить на площадку, но еще не умеют вместе играть... Но теперь все будет по-другому — за команду берется молодой тренер Сергей Макеев (Денис Никифоров). Когда-то он был звездой НХЛ, но после травмы завершил карьеру игрока и вернулся на родину. Перед новоиспеченным тренером стоит невыполнимая задача — выиграть чемпионат и создать команду первоклассных хоккеистов. Макеев должен превратить ребят в самых настоящих «медведей», которые порвут всех на пути к победе…Только сделать это совсем не просто, ведь у его игроков совсем другие интересы — учеба, друзья и, конечно, девушки. Да и менеджмент клуба не особо рад приходу слишком активного тренера…
    Качество: SATRip
    Формат: AVI
    Видео кодек: XviD
    Аудио кодек: MP3
    Видео: ~ 1500 Кбит/с, 720x400 (16:9), 25 fps, 0.249 bit/pixel
    Аудио: 48 kHz, MP3, 2 ch, 128 Кбит/с
    Реклама: Отсутствует
    Сэмпл
    Все раздачи сериала

    MI

    General
    Complete name : D:\Фильмы\Molodezka.2\Molodezhka.2.01.SATRip.avi
    Format : AVI
    Format/Info : Audio Video Interleave
    File size : 627 MiB
    Duration : 45mn 21s
    Overall bit rate : 1 933 Kbps
    Writing application : VirtualDubMod 1.5.10.3 | www.virtualdub-fr.org || (build 2550/release)
    Writing library : VirtualDub build 29808/release
    Video
    ID : 0
    Format : MPEG-4 Visual
    Format profile : Advanced Simple@L5
    Format settings, BVOP : 2
    Format settings, QPel : No
    Format settings, GMC : No warppoints
    Format settings, Matrix : Default (H.263)
    Codec ID : XVID
    Codec ID/Hint : XviD
    Duration : 45mn 21s
    Bit rate : 1 795 Kbps
    Width : 720 pixels
    Height : 400 pixels
    Display aspect ratio : 16:9
    Frame rate : 25.000 fps
    Color space : YUV
    Chroma subsampling : 4:2:0
    Bit depth : 8 bits
    Scan type : Interlaced
    Scan order : Bottom Field First
    Compression mode : Lossy
    Bits/(Pixel*Frame) : 0.249
    Stream size : 582 MiB (93%)
    Writing library : XviD 1.2.1 (UTC 2008-12-04)
    Audio
    ID : 1
    Format : MPEG Audio
    Format version : Version 1
    Format profile : Layer 3
    Codec ID : 55
    Codec ID/Hint : MP3
    Duration : 45mn 21s
    Bit rate mode : Constant
    Bit rate : 128 Kbps
    Channel(s) : 2 channels
    Sampling rate : 48.0 KHz
    Compression mode : Lossy
    Stream size : 41.5 MiB (7%)
    Alignment : Aligned on interleaves
    Interleave, duration : 40 ms (1.00 video frame)
    Interleave, preload duration : 504 ms
    Writing library : LAME3.99r
    Encoding settings : -m s -V 4 -q 2 -lowpass 17 -b 128

    Скриншоты

    Скачать .torrent

    Скачать торрент-файл бесплатно и на максимальной скорости!

    Как скачивать? · Что такое торрент? · Рейтинг и ограничения

    !ВНИМАНИЕ!
    Сайт не распространяет и не хранит электронные версии произведений, а занимается лишь лишь предоставлением доступа к создаваемому пользователями каталогу ссылок на торрент-файлы, которые содержат только списки хеш-сумм, убедительная просьба с жалобами обращаться напрямую к пользователю. Файлы для обмена на трекере предоставлены пользователями сайта, и администрация не несёт ответственности за их содержание. Просьба не заливать файлы, защищенные авторскими правами, а также файлы нелегального содержания!


    _________________
    [Профиль] [ЛС]
    Показать сообщения:    
    Ответить на тему

    Текущее время: Сегодня, в 06:16

    Часовой пояс: GMT + 2



    Вы не можете начинать темы
    Вы не можете отвечать на сообщения
    Вы не можете редактировать свои сообщения
    Вы не можете удалять свои сообщения
    Вы не можете голосовать в опросах
    Вы не можете прикреплять файлы к сообщениям
    Вы не можете скачивать файлы