BitTorrentTracker PerecTracker.org
BitTorrentTracker PerecTracker.org
    
Регистрация  ·  Вход
 
 · 
Забыли пароль?

  • Битва за Севастополь / Серии: 1-4 из 4 (Сергей Мокрицкий) [2015, военный, драма, HDTV (1080i)]

    Ответить на тему
     
    Автор Сообщение

    rechyn

    Создавать темы 31-Янв-2016 23:16

           

    [Цитировать]

    Битва за Севастополь--Год выпуска: 2015
    Производство: Кинодел, Новые люди
    Жанр: военный, драма
    Продолжительность: 00:47:00
    Субтитры: нет-Режиссёр: Сергей Мокрицкий-В ролях:
    Юлия Пересильд, Евгений Цыганов, Олег Васильков, Никита Тарасов, Джоан Блэкэм, Полина Пахомова, Владимир Лилицкий, Анатолий Кот,
    Нателла Абелева-Таганова, Валерий Гришко, Сергей Барковский, Виталий Линецкий, Сергей Пускепалис, Геннадий Ченцов, Светлана Осадченко,
    Алла Сергийко, Станислав Боклан, Дмитрий Лаленков, Станислав Лесной, Сергей Сипливый-Описание:
    Любовь под нескончаемым огнем противника, дружба с Элеонорой Рузвельт, выступление на конференции, повлиявшее на исход Второй мировой войны,
    желание жить и страх потерять любимого человека — справится ли со всем этим хрупкая женщина?
    Это реальная история Людмилы Павличенко — легендарной женщины-снайпера. Солдаты шли в бой с ее именем на устах, а враги устроили на нее охоту.
    На поле битвы она видела смерть и страдания, но самым серьезным испытанием для нее стала любовь, которую у нее могла забрать война…-Все раздачи сериала-Возраст: 12+-релиз подготовлен RG -Качество: HDTV (1080i)
    Формат: TS
    Видео кодек: AVC
    Аудио кодек: AC3, MP2

    Видео: AVC, 1920 х 1080 (16:9), 25,000 кадр/сек, 8 210 Кбит/сек, 0.158 bit/pixel
    Аудио 1: AC3, 48000 Hz, 384 Kbps, 6 каналов
    Аудио 2: MP2, 48000 Hz, 192 Kbps, 2 канала
    -

    MediaInfo

    General
    ID : 1 (0x1)
    Complete name : D:\Раздачи\Битва за Севастополь (Расширенная телеверсия) (1-4 серии из 4) HDTV (1080i)\Bitva.za.Sevastopol.02.HDTV(1080i).GeneralFilm.ts
    Format : MPEG-TS
    File size : 3.00 GiB
    Duration : 46mn 22s
    Overall bit rate mode : Variable
    Overall bit rate : 9 249 Kbps
    Video
    ID : 1603 (0x643)
    Menu ID : 80 (0x50)
    Format : AVC
    Format/Info : Advanced Video Codec
    Format profile : High@L4
    Format settings, CABAC : Yes
    Format settings, ReFrames : 3 frames
    Format settings, GOP : M=4, N=32
    Codec ID : 27
    Duration : 46mn 22s
    Bit rate : 8 210 Kbps
    Width : 1 920 pixels
    Height : 1 080 pixels
    Display aspect ratio : 16:9
    Frame rate : 25.000 fps
    Standard : Component
    Color space : YUV
    Chroma subsampling : 4:2:0
    Bit depth : 8 bits
    Scan type : Interlaced
    Scan order : Top Field First
    Bits/(Pixel*Frame) : 0.158
    Stream size : 2.66 GiB (89%)
    Color range : Limited
    Color primaries : BT.709
    Transfer characteristics : BT.709
    Matrix coefficients : BT.709
    Audio #1
    ID : 2603 (0xA2B)
    Menu ID : 80 (0x50)
    Format : AC-3
    Format/Info : Audio Coding 3
    Mode extension : CM (complete main)
    Format settings, Endianness : Big
    Codec ID : 6
    Duration : 46mn 22s
    Bit rate mode : Constant
    Bit rate : 384 Kbps
    Channel(s) : 6 channels
    Channel positions : Front: L C R, Side: L R, LFE
    Sampling rate : 48.0 KHz
    Compression mode : Lossy
    Delay relative to video : -40ms
    Stream size : 127 MiB (4%)
    Language : Russian
    Audio #2
    ID : 2604 (0xA2C)
    Menu ID : 80 (0x50)
    Format : MPEG Audio
    Format version : Version 1
    Format profile : Layer 2
    Codec ID : 3
    Duration : 46mn 22s
    Bit rate mode : Constant
    Bit rate : 192 Kbps
    Channel(s) : 2 channels
    Sampling rate : 48.0 KHz
    Compression mode : Lossy
    Delay relative to video : -40ms
    Stream size : 63.7 MiB (2%)
    Language : Russian
    -

    Скриншоты сериала


    -
    Скачать .torrent

    Скачать торрент-файл бесплатно и на максимальной скорости!

    Как скачивать? · Что такое торрент? · Рейтинг и ограничения

    !ВНИМАНИЕ!
    Сайт не распространяет и не хранит электронные версии произведений, а занимается лишь лишь предоставлением доступа к создаваемому пользователями каталогу ссылок на торрент-файлы, которые содержат только списки хеш-сумм, убедительная просьба с жалобами обращаться напрямую к пользователю. Файлы для обмена на трекере предоставлены пользователями сайта, и администрация не несёт ответственности за их содержание. Просьба не заливать файлы, защищенные авторскими правами, а также файлы нелегального содержания!


    _________________
    [Профиль] [ЛС]
    Показать сообщения:    
    Ответить на тему

    Текущее время: Сегодня, в 03:19

    Часовой пояс: GMT + 2



    Вы не можете начинать темы
    Вы не можете отвечать на сообщения
    Вы не можете редактировать свои сообщения
    Вы не можете удалять свои сообщения
    Вы не можете голосовать в опросах
    Вы не можете прикреплять файлы к сообщениям
    Вы не можете скачивать файлы