BitTorrentTracker PerecTracker.org
BitTorrentTracker PerecTracker.org
    
Регистрация  ·  Вход
 
 · 
Забыли пароль?

  • Мад / Mud (Джефф Николс / Jeff Nichols ) [2012, США, Драма, криминал, BDRip, HD (720p)] AVO (Ю.Сербин) + AVO (А.Гаврилов) + Original + sub (rus, eng, ukr)

    Ответить на тему
     
    Автор Сообщение

    Flirldrerve

    Создавать темы 31-Янв-2016 15:32

           

    [Цитировать]

    Мад / Mud
    -
    7.121 / 10 7.40 / 10
    -Год выпуска: 2012
    Страна: США
    Жанр: Драма, криминал
    Продолжительность: 02:10:40
    Перевод 1: Одноголосый закадровый (Ю.Сербин)
    Перевод 2: Одноголосый закадровый (А.Гаврилов)
    Оригинальная аудиодорожка: Есть
    Cубтитры: Русские, Английские, Украинские
    Режиссёр: Джефф Николс
    Сценарий: Джефф Николс
    Продюсер: Лиза Мария Фальконе, Сара Грин, Аарон Райдер
    Оператор: Адам Стоун
    Композитор: Дэвид Уинго
    Художник: Ричард А. Райт, Эллиотт Глик, Кари Перкинс
    Монтаж: Джули Монро
    В ролях: Мэттью МакКонахи, Тай Шеридан, Сэм Шепард, Риз Уизерспун, Джейкоб Лофленд, Рэй МакКиннон, Сара Полсон, Майкл Шеннон, Джо Дон Бейкер, Пол Спаркс
    Сборы в США: $21 590 086
    Мировая премьера: 26 мая 2012
    Описание: 14-летний Эллис живет с родителями в плавучем доме на берегу Миссисипи, в свободное время вместе с другом Некбоуном исследует реку. Однажды они находят на безлюдном острове лодку, застрявшую в ветвях дерева после крупного наводнения. Подростки хотят сделать лодку своим убежищем, но выясняется, что в ней уже кто-то поселился. Им оказывается некто по имени Мад, человек с татуировкой змеи, который явно от кого-то прячется и ждет с кем-то встречи…-Качество исходника: Blu-Ray (BlueBird)
    Качество: BDRip
    Тип: HD (720p)
    Контейнер: M4V
    Видео: H.264, 1280x544, 2.35:1, 3 500 Kbps, 23.976 (24000/1001) fps
    Аудио 1: Русский/Одноголосый закадровый (Ю.Сербин), AAC / 2.0 / 157 Kbps / 48.0 KHz
    Аудио 2: Русский/Одноголосый закадровый (А.Гаврилов), AAC / 2.0 / 157 Kbps / 48.0 KHz
    Аудио 3: Английский/Оригинальная дорожка , AAC / 2.0 / 158 Kbps / 48.0 KHz
    Аудио 4: Русский/Одноголосый закадровый (Ю.Сербин), AC-3 / 5.1 / 640 Kbps / 48.0 KHz
    Аудио 5: Русский/Одноголосый закадровый (А.Гаврилов), AC-3 / 5.1 / 640 Kbps / 48.0 KHz
    Аудио 6: Английский/Оригинальная дорожка , AC-3 / 5.1 / 640 Kbps / 48.0 KHz
    Субтитры 1: Русские полные
    Субтитры 2: Английские полные
    Субтитры 3: Украинские полные
    -

    iTunes Meta Tags

    Sort Name: Mud
    XID: Apple:vendor_id:2012-602544
    contentID: 645964782
    Screenwriters: Джефф Николс
    Producers: Лиза Мария Фальконе, Сара Грин, Аарон Райдер
    Director: Джефф Николс
    Cast: Мэттью МакКонахи, Тай Шеридан, Сэм Шепард, Риз Уизерспун, Джейкоб Лофленд, Рэй МакКиннон, Сара Полсон, Майкл Шеннон, Джо Дон Бейкер, Пол Спаркс
    Studio: Lionsgate
    Rating: 4
    Long Description: 14-летний Эллис живет с родителями в плавучем доме на берегу Миссисипи, в свободное время вместе с другом Некбоуном исследует реку. Однажды они находят на безлюдном острове лодку, застрявшую в ветвях дерева после крупного наводнения. Подростки хотят сделать лодку своим убежищем, но выясняется, что в ней уже кто-то поселился. Им оказывается некто по имени Мад, человек с татуировкой змеи, который явно от кого-то прячется и ждет с кем-то встречи...
    Description: 14-летний Эллис живет с родителями в плавучем доме на берегу Миссисипи, в свободное время вместе с другом Некбоуном исследует реку. Однажды они находят на безлюдном острове лодку, застрявшую в ветвях дерева после крупного наводнения. Подростки хотят сделать лодку своим убежищем, но выясняется, что в ней уже кто-то поселился. Им оказывается некто по имени Мад, человек с татуировкой змеи, который явно от кого-то прячется и ждет с кем-то встречи...
    Release Date: 2012-05-26T08:00:00Z
    Genre: Action & Adventure
    Artist: Jeff Nichols
    Name: Mud

    MediaInfo

    General
    Complete name : /Users/imac/HandBrake/Mud (720p HD).m4v
    Format : MPEG-4
    Codec ID : M4V  (M4V /M4A /mp42/isom)
    File size : 5.37 GiB
    Duration : 2h 10mn
    Overall bit rate mode : Variable
    Overall bit rate : 5 886 Kbps
    Movie name : Mud
    Performer : Jeff Nichols
    Director : Джефф Николс
    Actor : Мэттью МакКонахи / Тай Шеридан / Сэм Шепард / Риз Уизерспун / Джейкоб Лофленд / Рэй МакКиннон / Сара Полсон / Майкл Шеннон / Джо Дон Бейкер / Пол Спаркс
    Screenplay by : Джефф Николс
    Producer : Лиза Мария Фальконе / Сара Грин / Аарон Райдер
    Production studio : Lionsgate
    Genre : Action & Adventure
    ContentType : Short Film
    Description : 14-летний Эллис живет с родителями в плавучем доме на берегу Миссисипи, в свободное время вместе с другом Некбоуном исследует реку. Однажды они находят на безлюдном острове лодку, застрявшую в ветвях дерева после крупного наводнения. Подростки хотят сделать лодку своим убежищем, но выясняется, что в ней уже кто-то поселился. Им оказывается некто по имени Мад, человек с татуировкой змеи, который явно от кого-то прячется и ждет с кем-то встречи...
    Recorded date : UTC 2012-05-26 08:00:00
    Encoded date : UTC 2016-01-31 09:49:58
    Tagged date : UTC 2016-01-31 09:51:59
    Cover : Yes
    Rating : None
    Title/Sort : Mud
    LongDescription : 14-летний Эллис живет с родителями в плавучем доме на берегу Миссисипи, в свободное время вместе с другом Некбоуном исследует реку. Однажды они находят на безлюдном острове лодку, застрявшую в ветвях дерева после крупного наводнения. Подростки хотят сделать лодку своим убежищем, но выясняется, что в ней уже кто-то поселился. Им оказывается некто по имени Мад, человек с татуировкой змеи, который явно от кого-то прячется и ждет с кем-то встречи...
    HDVideo : Yes
    AppleStoreCatalogID : 645964782
    Vendor : Apple:vendor_id:2012-602544
    ContentRating : mpaa|PG-13|300|
    Video #1
    ID : 1
    Format : AVC
    Format/Info : Advanced Video Codec
    Format profile : High@L3.1
    Format settings, CABAC : No
    Format settings, ReFrames : 3 frames
    Codec ID : avc1
    Codec ID/Info : Advanced Video Coding
    Duration : 2h 10mn
    Source duration : 2h 10mn
    Bit rate : 3 500 Kbps
    Width : 1 280 pixels
    Height : 544 pixels
    Display aspect ratio : 2.35:1
    Frame rate mode : Variable
    Frame rate : 23.976 (24000/1001) fps
    Minimum frame rate : 23.810 fps
    Maximum frame rate : 24.246 fps
    Color space : YUV
    Chroma subsampling : 4:2:0
    Bit depth : 8 bits
    Scan type : Progressive
    Bits/(Pixel*Frame) : 0.210
    Stream size : 3.18 GiB (59%)
    Source stream size : 3.18 GiB (59%)
    Title : Main Program
    Writing library : x264 core 142 r2479 dd79a61
    Encoding settings : cabac=0 / ref=3 / deblock=1:-3:-3 / analyse=0x3:0x113 / me=umh / subme=9 / psy=1 / psy_rd=1.00:0.15 / mixed_ref=1 / me_range=32 / chroma_me=1 / trellis=0 / 8x8dct=1 / cqm=0 / deadzone=21,11 / fast_pskip=0 / chroma_qp_offset=-2 / threads=36 / lookahead_threads=3 / sliced_threads=0 / nr=0 / decimate=0 / interlaced=0 / bluray_compat=0 / constrained_intra=0 / bframes=3 / b_pyramid=0 / b_adapt=2 / b_bias=0 / direct=1 / weightb=0 / open_gop=0 / weightp=0 / keyint=240 / keyint_min=24 / scenecut=40 / intra_refresh=0 / rc_lookahead=40 / rc=2pass / mbtree=1 / bitrate=3500 / ratetol=1.0 / qcomp=0.65 / qpmin=0 / qpmax=69 / qpstep=4 / cplxblur=20.0 / qblur=0.5 / vbv_maxrate=9500 / vbv_bufsize=9500 / nal_hrd=none / filler=0 / ip_ratio=1.40 / aq=1:1.10
    Language : English
    Encoded date : UTC 2016-01-31 09:49:58
    Tagged date : UTC 2016-01-31 09:50:05
    Color range : Limited
    Color primaries : BT.709
    Transfer characteristics : BT.709
    Matrix coefficients : BT.709
    Menus : 11,12
    Video #2
    ID : 12
    Format : JPEG
    Codec ID : jpeg
    Duration : 2h 10mn
    Bit rate mode : Variable
    Bit rate : 635 bps
    Width : 640 pixels
    Height : 272 pixels
    Display aspect ratio : 2.35:1
    Frame rate mode : Variable
    Frame rate : 0.002 fps
    Minimum frame rate : 0.001 fps
    Maximum frame rate : 0.005 fps
    Color space : YUV
    Chroma subsampling : 4:2:0
    Bit depth : 8 bits
    Compression mode : Lossy
    Bits/(Pixel*Frame) : 1.824
    Stream size : 620 KiB (0%)
    Title : Chapter Images
    Language : English
    Default : No
    Encoded date : UTC 2016-01-31 09:51:00
    Tagged date : UTC 2016-01-31 09:51:00
    Menu For : 1
    Audio #1
    ID : 2
    Format : AAC
    Format/Info : Advanced Audio Codec
    Format profile : LC
    Codec ID : 40
    Duration : 2h 10mn
    Bit rate mode : Variable
    Bit rate : 157 Kbps
    Maximum bit rate : 269 Kbps
    Channel(s) : 2 channels
    Channel positions : Front: L R
    Sampling rate : 48.0 KHz
    Frame rate : 46.875 fps (1024 spf)
    Compression mode : Lossy
    Stream size : 147 MiB (3%)
    Title : Russian Stereo Serbin
    Language : Russian
    Default : Yes
    Alternate group : 1
    Encoded date : UTC 2016-01-31 09:49:59
    Tagged date : UTC 2016-01-31 09:50:56
    Fallback From : 5
    Audio #2
    ID : 3
    Format : AAC
    Format/Info : Advanced Audio Codec
    Format profile : LC
    Codec ID : 40
    Duration : 2h 10mn
    Bit rate mode : Variable
    Bit rate : 157 Kbps
    Maximum bit rate : 266 Kbps
    Channel(s) : 2 channels
    Channel positions : Front: L R
    Sampling rate : 48.0 KHz
    Frame rate : 46.875 fps (1024 spf)
    Compression mode : Lossy
    Stream size : 147 MiB (3%)
    Title : Russian Stereo Gavrilov
    Language : Russian
    Default : No
    Alternate group : 1
    Encoded date : UTC 2016-01-31 09:49:59
    Tagged date : UTC 2016-01-31 09:50:56
    Fallback From : 6
    Audio #3
    ID : 4
    Format : AAC
    Format/Info : Advanced Audio Codec
    Format profile : LC
    Codec ID : 40
    Duration : 2h 10mn
    Bit rate mode : Variable
    Bit rate : 158 Kbps
    Maximum bit rate : 266 Kbps
    Channel(s) : 2 channels
    Channel positions : Front: L R
    Sampling rate : 48.0 KHz
    Frame rate : 46.875 fps (1024 spf)
    Compression mode : Lossy
    Stream size : 147 MiB (3%)
    Title : English Stereo
    Language : English
    Default : No
    Alternate group : 1
    Encoded date : UTC 2016-01-31 09:49:59
    Tagged date : UTC 2016-01-31 09:50:56
    Fallback From : 7
    Audio #4
    ID : 5
    Format : AC-3
    Format/Info : Audio Coding 3
    Mode extension : CM (complete main)
    Format settings, Endianness : Big
    Codec ID : ac-3
    Duration : 2h 10mn
    Bit rate mode : Constant
    Bit rate : 640 Kbps
    Channel(s) : 6 channels
    Channel positions : Front: L C R, Side: L R, LFE
    Sampling rate : 48.0 KHz
    Frame rate : 31.250 fps (1536 spf)
    Bit depth : 16 bits
    Compression mode : Lossy
    Stream size : 598 MiB (11%)
    Title : Russian DD 5.1 Serbin
    Language : Russian
    Default : Inherited From: 2
    Alternate group : 1
    Encoded date : UTC 2016-01-31 09:49:59
    Tagged date : UTC 2016-01-31 09:50:56
    Fallback To : 2
    Audio #5
    ID : 6
    Format : AC-3
    Format/Info : Audio Coding 3
    Mode extension : CM (complete main)
    Format settings, Endianness : Big
    Codec ID : ac-3
    Duration : 2h 10mn
    Bit rate mode : Constant
    Bit rate : 640 Kbps
    Channel(s) : 6 channels
    Channel positions : Front: L C R, Side: L R, LFE
    Sampling rate : 48.0 KHz
    Frame rate : 31.250 fps (1536 spf)
    Bit depth : 16 bits
    Compression mode : Lossy
    Stream size : 598 MiB (11%)
    Title : Russian DD 5.1 Gavrilov
    Language : Russian
    Default : No
    Alternate group : 1
    Encoded date : UTC 2016-01-31 09:49:59
    Tagged date : UTC 2016-01-31 09:50:56
    Fallback To : 3
    Audio #6
    ID : 7
    Format : AC-3
    Format/Info : Audio Coding 3
    Mode extension : CM (complete main)
    Format settings, Endianness : Big
    Codec ID : ac-3
    Duration : 2h 10mn
    Bit rate mode : Constant
    Bit rate : 640 Kbps
    Channel(s) : 6 channels
    Channel positions : Front: L C R, Side: L R, LFE
    Sampling rate : 48.0 KHz
    Frame rate : 31.250 fps (1536 spf)
    Bit depth : 16 bits
    Compression mode : Lossy
    Stream size : 598 MiB (11%)
    Title : English DD 5.1
    Language : English
    Default : No
    Alternate group : 1
    Encoded date : UTC 2016-01-31 09:49:59
    Tagged date : UTC 2016-01-31 09:50:56
    Fallback To : 4
    Text #1
    ID : 8
    Format : Timed Text
    Muxing mode : sbtl
    Codec ID : tx3g
    Duration : 2h 6mn
    Bit rate mode : Variable
    Bit rate : 75 bps
    Stream size : 69.1 KiB (0%)
    Title : Russian full
    Language : Russian
    Default : Yes
    Forced : No
    Alternate group : 2
    Encoded date : UTC 2016-01-31 09:49:59
    Tagged date : UTC 2016-01-31 09:50:53
    Text #2
    ID : 9
    Format : Timed Text
    Muxing mode : sbtl
    Codec ID : tx3g
    Duration : 2h 6mn
    Bit rate mode : Variable
    Bit rate : 45 bps
    Stream size : 41.8 KiB (0%)
    Title : English full
    Language : English
    Default : No
    Forced : No
    Alternate group : 2
    Encoded date : UTC 2016-01-31 09:49:59
    Tagged date : UTC 2016-01-31 09:50:53
    Text #3
    ID : 10
    Format : Timed Text
    Muxing mode : sbtl
    Codec ID : tx3g
    Duration : 2h 6mn
    Bit rate mode : Variable
    Bit rate : 70 bps
    Stream size : 64.3 KiB (0%)
    Title : Ukrainian full
    Language : Ukrainian
    Default : No
    Forced : No
    Alternate group : 2
    Encoded date : UTC 2016-01-31 09:49:59
    Tagged date : UTC 2016-01-31 09:50:53
    Menu #1
    00:00:00.000 : Chapter 1
    00:07:59.270 : Chapter 2
    00:17:06.734 : Chapter 3
    00:24:49.071 : Chapter 4
    00:32:16.726 : Chapter 5
    00:39:46.259 : Chapter 6
    00:52:02.036 : Chapter 7
    00:57:58.392 : Chapter 8
    01:06:19.225 : Chapter 9
    01:17:45.619 : Chapter 10
    01:24:49.167 : Chapter 11
    01:32:28.585 : Chapter 12
    01:42:04.660 : Chapter 13
    01:50:34.461 : Chapter 14
    01:58:59.382 : Chapter 15
    02:07:01.697 : Chapter 16
    Menu #2
    ID : 11
    Codec ID : text
    Duration : 2h 10mn
    Language : English
    Encoded date : UTC 2016-01-31 09:50:56
    Tagged date : UTC 2016-01-31 09:50:56
    Menu For : 1
    00:00:00.000 : Chapter 1
    00:07:59.270 : Chapter 2
    00:17:06.734 : Chapter 3
    00:24:49.071 : Chapter 4
    00:32:16.726 : Chapter 5
    00:39:46.259 : Chapter 6
    00:52:02.036 : Chapter 7
    00:57:58.392 : Chapter 8
    01:06:19.225 : Chapter 9
    01:17:45.619 : Chapter 10
    01:24:49.167 : Chapter 11
    01:32:28.585 : Chapter 12
    01:42:04.660 : Chapter 13
    01:50:34.461 : Chapter 14
    01:58:59.382 : Chapter 15
    02:07:01.697 : Chapter 16
    Bit rate mode : VBR

    x264 лог

    x264 [info]: frame I:1819  Avg QP:15.83  size:103423
    x264 [info]: frame P:65401 Avg QP:18.62  size: 33266
    x264 [info]: frame B:120769 Avg QP:20.05  size:  8683
    x264 [info]: consecutive B-frames:  3.3% 17.1% 48.0% 31.6%
    x264 [info]: mb I  I16..4:  6.6% 59.3% 34.1%
    x264 [info]: mb P  I16..4:  1.4%  4.5%  2.0%  P16..4: 48.5% 26.8% 11.9%  0.0%  0.0%    skip: 5.0%
    x264 [info]: mb B  I16..4:  0.1%  0.5%  0.2%  B16..8: 47.4% 10.0%  1.6%  direct: 4.0%  skip:36.1%  L0:41.4% L1:52.1% BI: 6.5%
    x264 [info]: 8x8 transform intra:57.2% inter:45.5%
    x264 [info]: coded y,uvDC,uvAC intra: 80.9% 72.5% 46.4% inter: 27.2% 18.1% 7.3%
    x264 [info]: i16 v,h,dc,p: 56% 14% 10% 20%
    x264 [info]: i8 v,h,dc,ddl,ddr,vr,hd,vl,hu:  8%  8%  8% 11% 15% 14% 14% 11% 11%
    x264 [info]: i4 v,h,dc,ddl,ddr,vr,hd,vl,hu:  8%  9%  4% 11% 16% 15% 15% 11% 10%
    x264 [info]: i8c dc,h,v,p: 54% 18% 19% 10%
    x264 [info]: ref P L0: 69.7% 17.7% 12.6%
    x264 [info]: ref B L0: 79.1% 20.9%
    x264 [info]: kb/s:3481.75

    Скриншоты

    -

    Релиз подготовлен для просмотра на Apple TV, iPad, iPhone, iPod Touch.
    Для просмотра данного релиза на компьютере с ОС Windows рекомендуется использовать VLC media player
    Скачать .torrent

    Скачать торрент-файл бесплатно и на максимальной скорости!

    Как скачивать? · Что такое торрент? · Рейтинг и ограничения

    !ВНИМАНИЕ!
    Сайт не распространяет и не хранит электронные версии произведений, а занимается лишь лишь предоставлением доступа к создаваемому пользователями каталогу ссылок на торрент-файлы, которые содержат только списки хеш-сумм, убедительная просьба с жалобами обращаться напрямую к пользователю. Файлы для обмена на трекере предоставлены пользователями сайта, и администрация не несёт ответственности за их содержание. Просьба не заливать файлы, защищенные авторскими правами, а также файлы нелегального содержания!


    _________________
    [Профиль] [ЛС]
    Показать сообщения:    
    Ответить на тему

    Текущее время: Сегодня, в 08:33

    Часовой пояс: GMT + 2



    Вы не можете начинать темы
    Вы не можете отвечать на сообщения
    Вы не можете редактировать свои сообщения
    Вы не можете удалять свои сообщения
    Вы не можете голосовать в опросах
    Вы не можете прикреплять файлы к сообщениям
    Вы не можете скачивать файлы